img image001 image001 image001 image001 image001 image001 image001 image001 image001 image001 image001 image001 image001 image001 image001

Planets Sun Sun Sun
Статистика раздачи
Автор: Снежана | Размер: 7.86 ГБ | Добавлен: 25 июл 2013
Раздают: 12    Качают: 5
Скачать торрент
Скачать торрент
Описание торрента

СообщениеДобавлено: 25 июл 2013 

#77

Информация о фильме
Название: Чугунск Style / Соседи
Год выхода: 2012
Жанр: комедия
Режиссер: Елена Новикова, Михаил Богдасаров
В ролях: Сергей Габриэлян, Мария Аронова, Арунас Сакалаускас, Ольга Тумайкина, Егор Долгополов, Беата Тишкевич

О фильме:
Действие комедии разворачивается в элитном поселке, находящемся в двадцати километрах от города Чугунска. По задумке строительной компании, посёлок должен был стать местной «Рублёвкой». Но грянул кризис, и компания разорилась, успев построить только два коттеджа. Как раз эти два коттеджа в глуши и «посчастливилось» приобрести нашим героям: русской семье Полевых и американской семья Шенкли. Так начинаются забавные и трудные взаимоотношения двух разных семей и разных менталитетов.

Страна: Россия
Продолжительность: 768 мин.
Перевод: оригинал

Файл
Кодек: MPEG2
Качество: DVD9
Видео: PAL 16:9 (480x576@1024x576) VBR Auto Letterboxed
Звук: Russian (Dolby AC3, 2 ch) 96 Kbps
Субтитры: нет
Общее
Полное имя : F:РаздачиСоседи (16 серий из 16) DVD9VIDEO_TSVTS_01_5.VOB
Формат : MPEG-PS
Размер файла : 1000 Мбайт
Продолжительность : 22 с.
Режим общего битрейта : Переменный
Общий поток : 369 Мбит/сек

Видео
Идентификатор : 224 (0xE0)
Формат : MPEG Video
Версия формата : Version 2
Профиль формата : Main@Main
Параметр BVOP формата : Да
Параметр матрицы формата : По умолчанию
Продолжительность : 22 с.
Вид битрейта : Переменный
Битрейт : 362 Мбит/сек
Ширина : 480 пикселей
Высота : 576 пикселей
Соотношение сторон : 16:9
Частота кадров : 25,000 кадров/сек
Цветовое пространство : YUV
Субдискретизация насыщенности : 4:2:0
Битовая глубина : 8 бит
Тип развёртки : Прогрессивная
Метод сжатия : С потерями
Бит/(Пиксели*Кадры) : 52.338
Размер потока : 980 Мбайт (98%)

Аудио
Идентификатор : 189 (0xBD)-128 (0x80)
Формат : AC-3
Формат/Информация : Audio Coding 3
Расширение режима : CM (complete main)
Режим смешивания : DVD-Video
Продолжительность : 22 с.
Вид битрейта : Постоянный
Битрейт : 96,0 Кбит/сек
Каналы : 2 канала
Расположение каналов : Front: L R
Частота : 48,0 КГц
Битовая глубина : 16 бит
Метод сжатия : С потерями
Задержка видео : -80 мс.
Размер потока : 266 Кбайт (0%)





   Похожие торренты   Торрент   Размер 
В этой теме нет новых непрочитанных сообщений. Чугунск Style / Соседи [01-16 из 16] (2012) DVDRip

33 | 8

8.65 ГБ

В этой теме нет новых непрочитанных сообщений. Соседи. На тропе войны / Neighbors (2014) DVD9 от New-Team | D | Лицензия

131 | 26

6.01 ГБ

В этой теме нет новых непрочитанных сообщений. VA - New Age Style - To Chill Out 13 (2012) MP3

0 | 2

726.01 МБ

В этой теме нет новых непрочитанных сообщений. Соседи / The Neighbors (2012) HDRip

12 | 4

1.47 ГБ

В этой теме нет новых непрочитанных сообщений. Соседи / The Neighbors [S01] (2012) WEB-DLRip | P

9 | 6

5.38 ГБ

В этой теме нет новых непрочитанных сообщений. Соседи / Vecinos (2012) BDRip

71 | 12

111 МБ

В этой теме нет новых непрочитанных сообщений. VA - New Age Style - Erotic Lounge 3 (2012) MP3

3 | 1

348.05 МБ




Вы не можете начинать темы
Вы не можете отвечать на сообщения
Вы не можете редактировать свои сообщения
Вы не можете удалять свои сообщения
Вы не можете добавлять вложения

Перейти:  
Для Мосгорсуда, Роскомнадзора и рекламодателей: mosgorsud-torrent[собачка]yandex.ru
 Вход
ppkBB3cker v.2 © 2008-2014 @ PPK
[ Time : 0.256s | 14 Queries | GZIP : Off ]

Торрент трекер RUTOR.IN, Не можете зайти на rutor.org? Какой новый адрес рутор? Какое зеркало рутор? Не работает rutor.org и зеркала? Тогда наш торрент специально для вас. Rutor.in неофициальное зеркало rutor. В случае если у Вас заблокирован rutor или вдруг Вы не можете на него зайти, то Вы без труда сможете скачать бесплатно и без рекламы последние новинки кино, игр, сериалов и прочего у нас, на Rutor.in. Не нужно использовать прокси, чтобы зайти на рутор, достаточно воспользоваться нашим ресурсом. Все новые фильмы, игры, сериалы, книги и музыка за 2013 и 2014 годы через торрент бесплатно. Скачивайте фильмы в хорошем качестве, игры для пк, xbox, playstation без регистрации. У нас вы найдете новые Зарубежные сериалы и Русские сериалы 2013, 2014, 2015 годов. Оставайтесь с нами, качайте любимые фильмы, игры, сериалы, книги и музыку.