img image001 image001 image001 image001 image001 image001 image001 image001 image001 image001 image001 image001 image001 image001 image001

Planets Sun Sun Sun
Статистика раздачи
Автор: Снежана | Размер: 83.18 ГБ | Добавлен: 25 июл 2013
Раздают: 4    Качают: 4
Скачать торрент
Скачать торрент
Описание торрента

СообщениеДобавлено: 25 июл 2013 

#77


Элементарно / Elementary



Год выпуска: 2012
Страна: США
Жанр: Crime, Drama, Mystery
Жанр iTunes: Drama
Продолжительность: ~ 0:43:00
Перевод: Профессиональный (многоголосый, закадровый) - LostFilm / Профессиональный (полное дублирование) - Первый канал
Видео:
1080p - H.264, ~5000 kbps avg, 1920 x 1080 (16:9), 23.976 fps
720p - H.264, ~4000 kbps avg, 1280 x 720 (16:9), 23.976 fps
Аудио:
АС3 5.1 384 kbps - Английский / Профессиональный (многоголосый, закадровый) - LostFilm
АAC 2.0 160 kbps - Английский / Профессиональный (многоголосый, закадровый) - LostFilm / Профессиональный (полное дублирование) - Первый канал
Cубтитры:
3GPP Text - Английские

Создатели и актеры

Режиссёр:
Джон Дэвид Коулз, Майкл Куэста
Сценарий:
Роберт Доэрти
Продюсер:
Роберт Доэрти, Карл Беверли, Сара Тимберман
В ролях:
Джонни Ли Миллер (Холмс), Люси Лью (Ватсон), Эйдан Куинн (Грегсон)

Описание :
Elementary — современная драма о раскрывающем преступления дуэте Шерлока Холмса и доктора Ватсона, который помогает полиции Нью-Йорка в самых сложных делах. После лечения от алкоголизма и наркомании Шерлок сбегает из Лондона на Манхэттан, а его богатый отец заставляет его взять «компаньонку по трезвости» — Джоан Ватсон. Для Джоан это возможность искупить прошлые грехи — она была успешным хирургом до того, как по ее вине погиб пациент, и она потеряла лицензию. Но Шерлок не такой, как ее предыдущие клиенты. Он сразу же сообщает ей, что ее опыт к нему неприменим, и поддерживать трезвость он будет при помощи работы консультантом в полиции Нью-Йорка. У Ватсон не остается выбора кроме как следовать за ним повсюду. Шерлок находит ее медицинские знания полезными, а она внезапно находит в себе таланты следователя. Капитан Тоби Грегсон из полиции знаком с Холмсом по его работе в Скотланд-Ярде, и с радостью привлекает его к расследованиям в Нью-Йорке. Применив дедуктивный метод, легко догадаться, что эксцентричный Шерлок Холмс не долго протянет в Нью-Йорке, раскрывая преступления. Его порывы должен сдерживать верный друг. Кто бы это мог быть? Элементарно! Ватсон!




01. «Пилот» («Pilot»)
02. «Пока ты спала» («While You Were Sleeping»)
03. «Пожиратель детей» («Child Predator»)
04. «Крысиные бега» («The Rat Race»)
05. «Меньшее зло» («Lesser Evils»)
06. «Опасный полет» («Flight Risk»)
07. «Выйти сухим из воды» («One Way to Get Off»)
08. «Длинный запал» («The Long Fuse»)
09. «Доконать себя» («You Do It to Yourself»)
10. «Левиафан» («The Leviathan»)
11. «Копаясь в грязном белье» («Dirty Laundry»)
12. «М.» («M.»)
13. «Команда красных» («The Red Team»)
14. «Гений дедукции» («The Deductionist»)
15. «Огромная пушка, заряженная наркотиком» («A Giant Gun, Filled with Drugs»)
16. «Детали» («Details»)
17. «Второй вариант» («Possibility Two»)
18. «Дежа вю снова и снова» («Deja Vu All Over Again»)
19. «Снежные ангелы» («Snow Angels»)
20. «Страховка мертвеца» («Dead Man's Switch»)
21. «Важная веха в истории» («A Landmark Story»)
22. «Управление риском» («Risk Management»)
23. «Та самая женщина / Кое-что о героине» («The Woman / Heroine»)
Код:
Sort Album: Elementary, Season 1
iTunes Country: 143441
XID: RG-Apple:vendor-id:2012-661210-101
genreID: 4001
playlistID: 550570883
artistID: 550570880
contentID: 563700444
Copyright: © 2012 CBS Corp. All Rights Reserved.
Rating: 13
Long Deion: Detective Sherlock Holmes, along with his sober companion, Dr. Joan Watson, uses his uncanny ability to read people and analyze crimes to assist the NYPD on some of their more difficult cases. In the season premiere, Holmes consults on a home invasion that resulted in murder.
Deion: Detective Sherlock Holmes, along with his sober companion, Dr. Joan Watson, uses his uncanny ability
TV Season: 1
TV Episode ID: 101
TV Network: CBS
TV Episode #: 1
TV Show: Elementary
Disk #: 1/1
Track #: 1/0
Release Date: 2012-09-27T07:00:00Z
Genre: Drama
Album: Elementary
Album Artist: Elementary
Artist: Elementary
Name: Pilot
Код:
General
Complete name : /Volumes/music/iTunes/TV Shows/Elementary/Season 1/01 Pilot (HD).m4v
Format : MPEG-4
Format profile : Apple audio with iTunes info
Codec ID : M4A
File size : 1.70 GiB
Duration : 45mn 44s
Overall bit rate : 5 323 Kbps
Movie name : Pilot
Album : Elementary
Album/Performer : Elementary
Part/Position : 1
Part/Total : 1
Track name/Position : 1
Track name/Total : 0
Performer : Elementary
Genre : Drama
Recorded date : UTC 2012-09-27 07:00:00
Encoded date : UTC 2012-11-26 11:39:17
Tagged date : UTC 2012-11-28 05:08:22
Copyright : � 2012 CBS Corp. All Rights Reserved.
Cover : Yes
tvsh : Elementary
tvnn : CBS
tven : 101
tvsn : 1
tves : 1
soal : Elementary, Season 1
desc : Detective Sherlock Holmes, along with his sober companion, Dr. Joan Watson, uses his uncanny ability
ldes : Detective Sherlock Holmes, along with his sober companion, Dr. Joan Watson, uses his uncanny ability to read people and analyze crimes to assist the NYPD on some of their more difficult cases. In the season premiere, Holmes consults on a home invasion that resulted in murder.
hdvd : 1
stik : 10
rtng : 0
sfID : 143441
cnID : 563700444
atID : 550570880
plID : 550570883
geID : 4001
xid : RG-Apple:vendor-id:2012-661210-101
iTunEXTC : us-tv|TV-14|500|

Video
ID : 1
Format : AVC
Format/Info : Advanced Video Codec
Format profile : High@L3.1
Format settings, CABAC : No
Format settings, ReFrames : 2 frames
Format settings, GOP : M=2, N=24
Codec ID : avc1
Codec ID/Info : Advanced Video Coding
Duration : 45mn 44s
Bit rate mode : Variable
Bit rate : 4 077 Kbps
Width : 1 280 pixels
Height : 720 pixels
Display aspect ratio : 16:9
Frame rate mode : Variable
Frame rate : 23.976 fps
Minimum frame rate : 23.810 fps
Maximum frame rate : 24.390 fps
Color space : YUV
Chroma subsampling : 4:2:0
Bit depth : 8 bits
Scan type : Progressive
Bits/(Pixel*Frame) : 0.185
Stream size : 1.30 GiB (77%)
Language : English
Encoded date : UTC 2012-11-27 11:43:29
Tagged date : UTC 2012-11-27 11:47:26
Color primaries : BT.709-5, BT.1361, IEC 61966-2-4, SMPTE RP177
Transfer characteristics : BT.709-5, BT.1361
Matrix coefficients : BT.709-5, BT.1361, IEC 61966-2-4 709, SMPTE RP177

Audio #1
ID : 2
Format : AAC
Format/Info : Advanced Audio Codec
Format profile : LC
Codec ID : 40
Duration : 45mn 44s
Bit rate mode : Variable
Bit rate : 156 Kbps
Maximum bit rate : 272 Kbps
Channel(s) : 2 channels
Channel positions : Front: L R
Sampling rate : 48.0 KHz
Compression mode : Lossy
Stream size : 51.0 MiB (3%)
Language : Russian
Encoded date : UTC 2012-11-26 11:39:17
Tagged date : UTC 2012-11-26 11:39:21

Audio #2
ID : 3
Format : AAC
Format/Info : Advanced Audio Codec
Format profile : LC
Codec ID : 40
Duration : 45mn 44s
Bit rate mode : Variable
Bit rate : 157 Kbps
Maximum bit rate : 261 Kbps
Channel(s) : 2 channels
Channel positions : Front: L R
Sampling rate : 48.0 KHz
Compression mode : Lossy
Stream size : 51.4 MiB (3%)
Language : Russian
Encoded date : UTC 2012-11-27 11:43:29
Tagged date : UTC 2012-11-27 11:47:26

Audio #3
ID : 4
Format : AAC
Format/Info : Advanced Audio Codec
Format profile : LC
Codec ID : 40
Duration : 45mn 44s
Bit rate mode : Variable
Bit rate : 155 Kbps
Maximum bit rate : 253 Kbps
Channel(s) : 2 channels
Channel positions : Front: L R
Sampling rate : 48.0 KHz
Compression mode : Lossy
Stream size : 50.7 MiB (3%)
Language : English
Encoded date : UTC 2012-11-27 11:43:29
Tagged date : UTC 2012-11-27 11:47:26

Audio #4
ID : 5
Format : AC-3
Format/Info : Audio Coding 3
Mode extension : CM (complete main)
Codec ID : ac-3
Duration : 45mn 44s
Bit rate mode : Constant
Bit rate : 384 Kbps
Channel(s) : 6 channels
Channel positions : Front: L C R, Side: L R, LFE
Sampling rate : 48.0 KHz
Bit depth : 16 bits
Compression mode : Lossy
Stream size : 126 MiB (7%)
Language : Russian
Encoded date : UTC 2012-11-27 11:43:29
Tagged date : UTC 2012-11-27 11:47:26

Audio #5
ID : 6
Format : AC-3
Format/Info : Audio Coding 3
Mode extension : CM (complete main)
Codec ID : ac-3
Duration : 45mn 44s
Bit rate mode : Constant
Bit rate : 384 Kbps
Channel(s) : 6 channels
Channel positions : Front: L C R, Side: L R, LFE
Sampling rate : 48.0 KHz
Bit depth : 16 bits
Compression mode : Lossy
Stream size : 126 MiB (7%)
Language : English
Encoded date : UTC 2012-11-27 11:43:29
Tagged date : UTC 2012-11-27 11:47:26

Text
ID : 7
Format : Timed text
Muxing mode : sbtl
Codec ID : tx3g
Duration : 45mn 14s
Bit rate mode : Variable
Bit rate : 102 bps
Stream size : 33.8 KiB (0%)
Language : English
Encoded date : UTC 2012-11-27 11:43:29
Tagged date : UTC 2012-11-27 11:47:26
Код:
General
Complete name : /Volumes/music/iTunes/TV Shows/Elementary/Season 1/01 Pilot (1080p HD).m4v
Format : MPEG-4
Format profile : Apple audio with iTunes info
Codec ID : M4A
File size : 2.04 GiB
Duration : 45mn 44s
Overall bit rate : 6 377 Kbps
Movie name : Pilot
Album : Elementary
Album/Performer : Elementary
Part/Position : 1
Part/Total : 1
Track name/Position : 1
Track name/Total : 0
Performer : Elementary
Genre : Drama
Recorded date : 2012
Encoded date : UTC 2012-11-26 11:39:17
Tagged date : UTC 2012-11-28 05:20:48
Copyright : � 2012 CBS Corp. All Rights Reserved.
Cover : Yes
tvsh : Elementary
tvnn : CBS
tven : 101
tvsn : 1
tves : 1
soal : Elementary, Season 1
desc : Detective Sherlock Holmes, along with his sober companion, Dr. Joan Watson, uses his uncanny ability
ldes : Detective Sherlock Holmes, along with his sober companion, Dr. Joan Watson, uses his uncanny ability to read people and analyze crimes to assist the NYPD on some of their more difficult cases. In the season premiere, Holmes consults on a home invasion that resulted in murder.
hdvd : 2
stik : 10
rtng : 0
sfID : 143441
cnID : 563700444
atID : 550570880
plID : 550570883
geID : 4001
xid : RG-Apple:vendor-id:2012-661210-101
iTunEXTC : us-tv|TV-14|500|

Video
ID : 1
Format : AVC
Format/Info : Advanced Video Codec
Format profile : High@L4.0
Format settings, CABAC : Yes
Format settings, ReFrames : 4 frames
Format settings, GOP : M=2, N=24
Codec ID : avc1
Codec ID/Info : Advanced Video Coding
Duration : 45mn 44s
Bit rate mode : Variable
Bit rate : 5 131 Kbps
Width : 1 920 pixels
Height : 1 080 pixels
Display aspect ratio : 16:9
Frame rate mode : Variable
Frame rate : 23.976 fps
Minimum frame rate : 23.810 fps
Maximum frame rate : 24.390 fps
Color space : YUV
Chroma subsampling : 4:2:0
Bit depth : 8 bits
Scan type : Progressive
Bits/(Pixel*Frame) : 0.103
Stream size : 1.64 GiB (80%)
Language : English
Encoded date : UTC 2012-11-27 11:46:23
Tagged date : UTC 2012-11-27 11:50:18
Color primaries : BT.709-5, BT.1361, IEC 61966-2-4, SMPTE RP177
Transfer characteristics : BT.709-5, BT.1361
Matrix coefficients : BT.709-5, BT.1361, IEC 61966-2-4 709, SMPTE RP177

Audio #1
ID : 2
Format : AAC
Format/Info : Advanced Audio Codec
Format profile : LC
Codec ID : 40
Duration : 45mn 44s
Bit rate mode : Variable
Bit rate : 156 Kbps
Maximum bit rate : 272 Kbps
Channel(s) : 2 channels
Channel positions : Front: L R
Sampling rate : 48.0 KHz
Compression mode : Lossy
Stream size : 51.0 MiB (2%)
Language : Russian
Encoded date : UTC 2012-11-26 11:39:17
Tagged date : UTC 2012-11-26 11:39:21

Audio #2
ID : 3
Format : AAC
Format/Info : Advanced Audio Codec
Format profile : LC
Codec ID : 40
Duration : 45mn 44s
Bit rate mode : Variable
Bit rate : 157 Kbps
Maximum bit rate : 261 Kbps
Channel(s) : 2 channels
Channel positions : Front: L R
Sampling rate : 48.0 KHz
Compression mode : Lossy
Stream size : 51.4 MiB (2%)
Language : Russian
Encoded date : UTC 2012-11-27 11:46:23
Tagged date : UTC 2012-11-27 11:50:18

Audio #3
ID : 4
Format : AAC
Format/Info : Advanced Audio Codec
Format profile : LC
Codec ID : 40
Duration : 45mn 44s
Bit rate mode : Variable
Bit rate : 155 Kbps
Maximum bit rate : 253 Kbps
Channel(s) : 2 channels
Channel positions : Front: L R
Sampling rate : 48.0 KHz
Compression mode : Lossy
Stream size : 50.7 MiB (2%)
Language : English
Encoded date : UTC 2012-11-27 11:46:23
Tagged date : UTC 2012-11-27 11:50:18

Audio #4
ID : 5
Format : AC-3
Format/Info : Audio Coding 3
Mode extension : CM (complete main)
Codec ID : ac-3
Duration : 45mn 44s
Bit rate mode : Constant
Bit rate : 384 Kbps
Channel(s) : 6 channels
Channel positions : Front: L C R, Side: L R, LFE
Sampling rate : 48.0 KHz
Bit depth : 16 bits
Compression mode : Lossy
Stream size : 126 MiB (6%)
Language : Russian
Encoded date : UTC 2012-11-27 11:46:23
Tagged date : UTC 2012-11-27 11:50:18

Audio #5
ID : 6
Format : AC-3
Format/Info : Audio Coding 3
Mode extension : CM (complete main)
Codec ID : ac-3
Duration : 45mn 44s
Bit rate mode : Constant
Bit rate : 384 Kbps
Channel(s) : 6 channels
Channel positions : Front: L C R, Side: L R, LFE
Sampling rate : 48.0 KHz
Bit depth : 16 bits
Compression mode : Lossy
Stream size : 126 MiB (6%)
Language : English
Encoded date : UTC 2012-11-27 11:46:23
Tagged date : UTC 2012-11-27 11:50:18

Text
ID : 7
Format : Timed text
Muxing mode : sbtl
Codec ID : tx3g
Duration : 45mn 14s
Bit rate mode : Variable
Bit rate : 102 bps
Stream size : 33.8 KiB (0%)
Language : English
Encoded date : UTC 2012-11-27 11:46:23
Tagged date : UTC 2012-11-27 11:50:18





Релиз подготовлен специально для просмотра на Apple TV, iPad.
Пользователям Windows рекомендуется просматривать в VLC.



   Похожие торренты   Торрент   Размер 
В этой теме нет новых непрочитанных сообщений. Элементарно / Elementary [S01] (2012) WEB-DL 720p | LostFilm, NewStudio

67 | 59

39.03 ГБ

В этой теме нет новых непрочитанных сообщений. Элементарно / Elementary [S01] (2012-2013) WEB-DL 720p | LostFilm

36 | 40

35.08 ГБ

В этой теме нет новых непрочитанных сообщений. Элементарно / Elementary [S01-03] (2012-2015) WEB-DL 720p | LostFilm

37 | 111

104.03 ГБ

В этой теме нет новых непрочитанных сообщений. Элементарно / Elementary [01x01-22] (2012-2013) WEB-DL 720p от to4ka | D

1 | 3

31.31 ГБ

В этой теме нет новых непрочитанных сообщений. Элементарно / Elementary [01x01-18 из 24] (2012-2013) WEB-DLRip-AVC 720p l D

0 | 2

19.48 ГБ

В этой теме нет новых непрочитанных сообщений. Элементарно / Elementary [S04] (2015) WEB-DL 1080p | LostFilm

58 | 73

43.44 ГБ

В этой теме нет новых непрочитанных сообщений. Элементарно / Elementary [S02] (2013-2014) WEB-DL 1080p | LostFilm, NewStudio

46 | 71

43.49 ГБ




Вы не можете начинать темы
Вы не можете отвечать на сообщения
Вы не можете редактировать свои сообщения
Вы не можете удалять свои сообщения
Вы не можете добавлять вложения

Перейти:  
Для Мосгорсуда, Роскомнадзора и рекламодателей: mosgorsud-torrent[собачка]yandex.ru
 Вход
ppkBB3cker v.2 © 2008-2014 @ PPK
[ Time : 0.851s | 14 Queries | GZIP : Off ]

Торрент трекер RUTOR.IN, Не можете зайти на rutor.org? Какой новый адрес рутор? Какое зеркало рутор? Не работает rutor.org и зеркала? Тогда наш торрент специально для вас. Rutor.in неофициальное зеркало rutor. В случае если у Вас заблокирован rutor или вдруг Вы не можете на него зайти, то Вы без труда сможете скачать бесплатно и без рекламы последние новинки кино, игр, сериалов и прочего у нас, на Rutor.in. Не нужно использовать прокси, чтобы зайти на рутор, достаточно воспользоваться нашим ресурсом. Все новые фильмы, игры, сериалы, книги и музыка за 2013 и 2014 годы через торрент бесплатно. Скачивайте фильмы в хорошем качестве, игры для пк, xbox, playstation без регистрации. У нас вы найдете новые Зарубежные сериалы и Русские сериалы 2013, 2014, 2015 годов. Оставайтесь с нами, качайте любимые фильмы, игры, сериалы, книги и музыку.