img image001 image001 image001 image001 image001 image001 image001 image001 image001 image001 image001 image001 image001 image001 image001

Planets Sun Sun Sun
Статистика раздачи
Автор: Снежана | Размер: 39.03 ГБ | Добавлен: 25 июл 2013
Раздают: 67    Качают: 59
Скачать торрент
Скачать торрент
Описание торрента

СообщениеДобавлено: 25 июл 2013 


Элементарно / Elementary



Страна: США | USA
Жанр: криминал, драма, детектив
Год выпуска: 2012
Продолжительность: ~00:45:00
Перевод: Профессиональный (многоголосый закадровый)
Cубтитры: английские
Режиссер: Джон Дэвид Коулз, Майкл Куэста / John David Coles, Michael Cuesta
В ролях:
Джонни Ли Миллер, Люси Лью, Эйдан Куинн, Билл Хек, Уорд Хортон, Мэнни Перез и др.

Описание:
Элементарно — современная драма о раскрывающем преступления дуэте Шерлока Холмса и доктора Ватсона, который помогает полиции Нью-Йорка в самых сложных делах. После лечения от алкоголизма и наркомании Шерлок сбегает из Лондона на Манхэттан, а его богатый отец заставляет его взять «компаньонку по трезвости» — Джоан Ватсон. Для Джоан это возможность искупить прошлые грехи — она была успешным хирургом до того, как по ее вине погиб пациент, и она потеряла лицензию. Но Шерлок не такой, как ее предыдущие клиенты. Он сразу же сообщает ей, что ее опыт к нему неприменим, и поддерживать трезвость он будет при помощи работы консультантом в полиции Нью-Йорка. У Ватсон не остается выбора кроме как следовать за ним повсюду. Шерлок находит ее медицинские знания полезными, а она внезапно находит в себе таланты следователя. Капитан Тоби Грегсон из полиции знаком с Холмсом по его работе в Скотланд-Ярде, и с радостью привлекает его к расследованиям в Нью-Йорке. Применив дедуктивный метод, легко догадаться, что эксцентричный Шерлок Холмс не долго протянет в Нью-Йорке, раскрывая преступления. Его порывы должен сдерживать верный друг. Кто бы это мог быть? Элементарно! Ватсон!

РАЗДАЧА ОТ :
by GATER_media
Качество видео: WEB-DL 720p
Формат: MKV
Видео кодек: H.264
Аудио кодек: AC3
Видео: 1280x720 (16:9), 23.976 fps, ~4000 kbps, ~0.18 bit/pixel
Аудио Rus: 48.0 KHz, 6 ch, 384 Kbps, CBR / LostFilm /
Аудио Rus: 48.0 KHz, 6 ch, 384 Kbps, CBR / NewStudio /
Аудио Eng: 48.0 KHz, 6 ch, 384 Kbps, CBR / Оригинал /
«Семпл»


Озвучание: Студия "LostFilm".



Озвучка: Наталья Ланц, Михаил Шорыгин, Константин Погодаев
Перевод: Альберт Фасхутдинов
Работа со звуком: Михаил Шорыгин


Общее
Уникальный идентификатор : 180161379207356336774686827868271529870 (0x8789D1CAFF8351758EB38F392C81CF8E)
Полное имя : I:РАЗДАЧИ НА TORRENTS.RUElementary.S01.720p.WEB-DL.HDCLUBElementary.S01E01.720p.WEB-DL.Rus.Eng.HDCLUB.mkv
Формат : Matroska
Версия формата : Version 2
Размер файла : 1,67 Гбайт
Продолжительность : 45 м.
Общий поток : 5231 Кбит/сек
Дата кодирования : UTC 2012-10-03 13:47:06
Программа кодирования : mkvmerge v4.0.0 ('The Stars were mine') сборка от Jun 6 2010 16:18:42
Библиотека кодирования : libebml v1.0.0 + libmatroska v1.0.0
Видео
Идентификатор : 1
Формат : AVC
Формат/Информация : Advanced Video Codec
Профиль формата : High@L3.1
Параметр CABAC формата : Нет
Параметр ReFrames формата : 2 кадра
Идентификатор кодека : V_MPEG4/ISO/AVC
Продолжительность : 45 м.
Битрейт : 3975 Кбит/сек
Ширина : 1280 пикселей
Высота : 720 пикселей
Соотношение сторон : 16:9
Режим частоты кадров : Постоянный
Частота кадров : 23,976 кадра/сек
Цветовое пространство : YUV
Субдискретизация насыщенности : 4:2:0
Битовая глубина : 8 бит
Тип развёртки : Прогрессивная
Бит/(Пиксели*Кадры) : 0.180
Размер потока : 1,27 Гбайт (76%)
Язык : English
Default : Нет
Forced : Нет
Основные цвета : BT.709
Характеристики трансфера : BT.709
Коэффициенты матрицы : BT.709
Аудио #1
Идентификатор : 2
Формат : AC-3
Формат/Информация : Audio Coding 3
Расширение режима : CM (complete main)
Параметр Endianness формата : Big
Идентификатор кодека : A_AC3
Продолжительность : 45 м.
Вид битрейта : Постоянный
Битрейт : 384 Кбит/сек
Каналы : 6 каналов
Расположение каналов : Front: L C R, Side: L R, LFE
Частота : 48,0 КГц
Битовая глубина : 16 бит
Метод сжатия : С потерями
Размер потока : 126 Мбайт (7%)
Заголовок : Lostfilm
Язык : Russian
Default : Да
Forced : Нет
Аудио #2
Идентификатор : 3
Формат : AC-3
Формат/Информация : Audio Coding 3
Расширение режима : CM (complete main)
Параметр Endianness формата : Big
Идентификатор кодека : A_AC3
Продолжительность : 45 м.
Вид битрейта : Постоянный
Битрейт : 384 Кбит/сек
Каналы : 6 каналов
Расположение каналов : Front: L C R, Side: L R, LFE
Частота : 48,0 КГц
Битовая глубина : 16 бит
Метод сжатия : С потерями
Размер потока : 126 Мбайт (7%)
Заголовок : New Studio
Язык : Russian
Default : Нет
Forced : Нет
Аудио #3
Идентификатор : 4
Формат : AC-3
Формат/Информация : Audio Coding 3
Расширение режима : CM (complete main)
Параметр Endianness формата : Big
Идентификатор кодека : A_AC3
Продолжительность : 45 м.
Вид битрейта : Постоянный
Битрейт : 384 Кбит/сек
Каналы : 6 каналов
Расположение каналов : Front: L C R, Side: L R, LFE
Частота : 48,0 КГц
Битовая глубина : 16 бит
Метод сжатия : С потерями
Размер потока : 126 Мбайт (7%)
Язык : English
Default : Нет
Forced : Нет
Текст
Идентификатор : 5
Формат : UTF-8
Идентификатор кодека : S_TEXT/UTF8
Идентификатор кодека/Информация : UTF-8 Plain Text
Язык : English
Default : Нет
Forced : Нет






Раздача ведётся путём добавления новых серий; при каждом добавлении создаётся новый торрент. Чтобы начать докачку новой серии, пользователям необходимо сделать следующее:
(1) остановить скачивание,
(2) удалить старый торрент у себя из клиента (старые серии удалять не надо),
(3) скачать новый торрент и запустить его у себя в клиенте вместо старого, при этом указать клиенту путь в старую папку куда и должно происходить скачивание новых серий.
Ваш клиент при этом должен произвести хеширование (проверку) старой папки (если не производит сам - помогите ему сделать это), и будет докачивать только те серии которых у вас ещё нет. Старые серии при этом не удаляются, а продолжают раздаваться!
Eсли вы уже удалили старые серии, то предотвратить повторную закачку старых серий можно, отжав галочку в соответствующих местах при запуске нового торрента. По возможности, желательно не удалять старые серии как можно дольше чтобы релизёр не столько продолжал раздавать старые серии, а смог сконцентрироваться на новых.



   Похожие торренты   Торрент   Размер 
В этой теме нет новых непрочитанных сообщений. Элементарно / Elementary [05х01 из 22] (2016) WEB-DL 720p | LostFilm, NewStudio

0 | 0

1.58 ГБ

В этой теме нет новых непрочитанных сообщений. Элементарно / Elementary [03x01-18] (2014-2015) WEB-DL (720p) | LostFilm, Amedia, NewStudio

4 | 21

29.78 ГБ

В этой теме нет новых непрочитанных сообщений. Элементарно / Elementary [S01] (2012) WEB-DL 720p | NewStudio

19 | 22

35.07 ГБ

В этой теме нет новых непрочитанных сообщений. Элементарно / Elementary [S02] (2013-2014) WEB-DL 1080p | LostFilm, NewStudio

46 | 71

43.49 ГБ

В этой теме нет новых непрочитанных сообщений. Элементарно / Elementary [S01-S02] (2012-2014) WEB-DLRip-AVC 720p l D,NewStudio

216 | 44

51.14 ГБ

В этой теме нет новых непрочитанных сообщений. Элементарно / Elementary [S01-S03] (2012-2015) WEB-DLRip 720p l D,NewStudio

12 | 26

80.69 ГБ

В этой теме нет новых непрочитанных сообщений. Элементарно / Elementary [S01] (2012-2013) WEB-DL 720p | LostFilm

36 | 40

35.08 ГБ




Вы не можете начинать темы
Вы не можете отвечать на сообщения
Вы не можете редактировать свои сообщения
Вы не можете удалять свои сообщения
Вы не можете добавлять вложения

Перейти:  
Для Мосгорсуда, Роскомнадзора и рекламодателей: mosgorsud-torrent[собачка]yandex.ru
 Вход
ppkBB3cker v.2 © 2008-2014 @ PPK
[ Time : 0.038s | 14 Queries | GZIP : Off ]
CGP output time : 0.019s | 7 Queries | GZIP : Off

Торрент трекер RUTOR.IN, Не можете зайти на rutor.org? Какой новый адрес рутор? Какое зеркало рутор? Не работает rutor.org и зеркала? Тогда наш торрент специально для вас. Rutor.in неофициальное зеркало rutor. В случае если у Вас заблокирован rutor или вдруг Вы не можете на него зайти, то Вы без труда сможете скачать бесплатно и без рекламы последние новинки кино, игр, сериалов и прочего у нас, на Rutor.in. Не нужно использовать прокси, чтобы зайти на рутор, достаточно воспользоваться нашим ресурсом. Все новые фильмы, игры, сериалы, книги и музыка за 2013 и 2014 годы через торрент бесплатно. Скачивайте фильмы в хорошем качестве, игры для пк, xbox, playstation без регистрации. У нас вы найдете новые Зарубежные сериалы и Русские сериалы 2013, 2014, 2015 годов. Оставайтесь с нами, качайте любимые фильмы, игры, сериалы, книги и музыку.