img image001 image001 image001 image001 image001 image001 image001 image001 image001 image001 image001 image001 image001 image001 image001

Planets Sun Sun Sun
Статистика раздачи
Автор: Снежана | Размер: 7.16 ГБ | Добавлен: 25 июл 2013
Раздают: 20    Качают: 5
Скачать торрент
Скачать торрент
Описание торрента

СообщениеДобавлено: 25 июл 2013 

#77

Год выпуска: 2013
Страна: США
Жанр: Драма, Фэнтези
Сезон: 3
Количество серий: 1 - 10 из 10
Продолжительность: 10 х 00:57:00
Перевод: Профессиональный (многоголосый, закадровый) [NovaFilm]
Оригинальная аудиодорожка: нет
Субтиры: нет

Режиссер: Алан Тейлор / Alan Taylor, Брайан Кирк / Brian Kirk, Даниэль Минахан / Daniel Minahan

В ролях: Чарльз Дэнс, Исаак Хемпстид-Райт, John Bradley, Рон Донаки, Йен МакЭлхинни, Гарри Ллойд, Марк Эдди

Описание:
«Игра престолов» — новый сериал HBO, основанный на бестселлерах Джорджа Р.Р. Мартина. В мире, где лето и зимы длятся десятилетиями, на кону корона Вестероса. Предательство, похоть, интриги и сверхъестественные силы сотрясают все четыре стороны Королевства — от плетущего интриги юга, диких восточных земель, до замерзшего севера и древней Стены, что защищает королевство от тьмы за нею. Короли и королевы, рыцари и мятежники, лжецы и благородные люди борются за власть в кровавом сражении за Железный Трон.



Качество: HDTVRip
Формат: AVI
Видео кодек: XviD
Аудио кодек: AC3
Видео: 656x368 (1.78:1), 23.976 fps, XviD build 50 ~1362 kbps avg, 0.23 bit/pixel
Аудио №1: 48 kHz, AC3 Dolby Digital, 3/2 (L,C,R,l,r) + LFE ch, ~384 kbps | 1 - 7 серия
Аудио №2: 48 kHz, AC3 Dolby Digital, 2/0 (L,R) ch, ~192 kbps | 8-10 серия


Раздача от:


D:Мои рипыgame.of.thrones.s03.hdtvrip.novafilm. by dexter lexgame.of.thrones.s03e01.hdtvrip.novafilm. by dexter lex.avi
General
Complete name : D:Мои рипыgame.of.thrones.s03.hdtvrip.novafilm. by dexter lexgame.of.thrones.s03e01.hdtvrip.novafilm. by dexter lex.avi
Format : AVI
Format/Info : Audio Video Interleave
File size : 718 MiB
Duration : 57mn 10s
Overall bit rate : 1 756 Kbps
Writing application : VirtualDubMod 1.5.10.3 | www.virtualdub-fr.org || (build 2550/release)
Writing library : VirtualDubMod build 2550/release
Video #0
ID : 0
Format : MPEG-4 Visual
Format profile : Advanced Simple@L5
Format settings, BVOP : 1
Format settings, QPel : No
Format settings, GMC : No warppoints
Format settings, Matrix : Custom
Codec ID : XVID
Codec ID/Hint : XviD
Duration : 57mn 10s
Bit rate : 1 362 Kbps
Width : 656 pixels
Height : 368 pixels
Display aspect ratio : 1.78:1
Frame rate : 23.976 fps
Color space : YUV
Chroma subsampling : 4:2:0
Bit depth : 8 bits
Scan type : Progressive
Compression mode : Lossy
Bits/(Pixel*Frame) : 0.235
Stream size : 557 MiB (78%)
Writing library : XviD 1.2.1 (UTC 2008-12-04)
Audio #1
ID : 1
Format : AC-3
Format/Info : Audio Coding 3
Mode extension : CM (complete main)
Format settings, Endianness : Big
Codec ID : 2000
Duration : 57mn 10s
Bit rate mode : Constant
Bit rate : 384 Kbps
Channel(s) : 6 channels
Channel positions : Front: L C R, Side: L R, LFE
Sampling rate : 48.0 KHz
Bit depth : 16 bits
Compression mode : Lossy
Stream size : 157 MiB (22%)
Alignment : Split accross interleaves
Interleave, duration : 42 ms (1.00 video frame)
Interleave, preload duration : 500 ms



   Похожие торренты   Торрент   Размер 
В этой теме нет новых непрочитанных сообщений. Игра престолов / Game of Thrones [S03] (2013) HDTVRip, WEB-DLRip | NovaFilm

79 | 25

5.87 ГБ

В этой теме нет новых непрочитанных сообщений. Игра престолов / Game of Thrones [SO3] (2013) HDTVRip от Youtracker | КПК

118 | 23

4.86 ГБ

В этой теме нет новых непрочитанных сообщений. Игра престолов / Game of Thrones [03x01] (2013) WEB-DLRip-AVC | LostFilm, AlexFilm, NovaFilm

1 | 3

1.15 ГБ

В этой теме нет новых непрочитанных сообщений. Игра престолов / Game of Thrones [03x01] (2013) WEB-DL 1080p | NovaFilm, Мекс, Jaskier

0 | 3

2.42 ГБ

В этой теме нет новых непрочитанных сообщений. Игра престолов / Game of Thrones [S03] HDTVRip-AVC от R.G. 25 Кадр | AlexFilm, LostFilm, NovaFilm, NewStudio, Омикрон

20 | 26

16.36 ГБ

В этой теме нет новых непрочитанных сообщений. Игра престолов / Game of Thrones [S03] (2013) HDTV 720p, WEB-DL 720p | NovaFilm

27 | 8

17.11 ГБ

В этой теме нет новых непрочитанных сообщений. Игра престолов / Game of Thrones [S03] (2013) HDTVRip | Sub

29 | 6

4.52 ГБ




Вы не можете начинать темы
Вы не можете отвечать на сообщения
Вы не можете редактировать свои сообщения
Вы не можете удалять свои сообщения
Вы не можете добавлять вложения

Перейти:  
Для Мосгорсуда, Роскомнадзора и рекламодателей: mosgorsud-torrent[собачка]yandex.ru
 Вход
ppkBB3cker v.2 © 2008-2014 @ PPK
[ Time : 0.057s | 17 Queries | GZIP : Off ]

cron