img image001 image001 image001 image001 image001 image001 image001 image001 image001 image001 image001 image001 image001 image001 image001

Planets Sun Sun Sun
Статистика раздачи
Автор: Снежана | Размер: 1.99 ГБ | Добавлен: 25 июл 2013
Раздают: 83    Качают: 9
Скачать торрент
Скачать торрент
Описание торрента

СообщениеДобавлено: 25 июл 2013 

#77

Информация о фильме
Название: Спартак: Боги арены
Оригинальное название: Spartacus: Gods of the Arena
Год выхода: 2011
Жанр: драма, история
Режиссер: Рик Джейкобсон
В ролях: Лесли-Энн Брандт, Люси Лоулесс, Джессика Грэйс Смит, Ник Тарабэй, Райхо Василев, Мариса Рамирез, Ману Беннетт, Дастин Клер, Джон Ханна, Питер Менса

О фильме:
Дом Батиата возвышался над городом Капуя многие годы. "Спартак: Боги арены" расскажет нам о его кровавой истории до появления Спартака и смерти, которую он принёс с собой. Это время, когда амбициозный Квинт Лентул Батиат принимает бразды правления от своего отца, чтобы вернуть дому былую славу. С его красавицей мастером интриг женой Лукрецией на своей стороне он не остановится ни перед чем, дабы увидеть свое имя вписанным в историю. Батиат ставит всё своё состояние на жуликоватого гладиатора Gannicus, чье мастерство владения мечем уступает лишь его жажде проживать каждый день так, будто он последний. Но есть те, кто хотят видеть Батиата и его чемпиона уничтоженными. Преданность будет проверена, жизнь разрушена, а битвы захватывающими...
Страна: США
Продолжительность серии: ~51 мин.
Перевод: Профессиональный (многоголосый закадровый) (LostFilm)

Файл
Кодек: H264 (AVC)
Качество: HDTVRip
Видео: AVC at - 815 Кбит/сек, 640 x 352 (1.800) at 23.976 fps
Звук: AAC at 128 Кбит/сек, 2 канала, 48,0 КГц
Субтитры: Отсутствуют



Код:
 Общее
Полное имя                               : Спартак Боги арены 01.mp4
Формат                                   : MPEG-4
Профиль формата                          : Base Media
Идентификатор кодека                     : isom
Размер файла                             : 348 Мбайт
Продолжительность                        : 51 м.
Общий поток                              : 948 Кбит/сек
Исполнитель                              : RG BrodimCom
Программа кодирования                    : XviD4PSP 6.0 / 54.29.105

Видео
Идентификатор                            : 1
Формат                                   : AVC
Формат/Информация                        : Advanced Video Codec
Профиль формата                          : Main@L4.1
Параметр CABAC формата                   : Да
Параметр ReFrames формата                : 3 кадра
Идентификатор кодека                     : avc1
Идентификатор кодека/Информация          : Advanced Video Coding
Продолжительность                        : 51 м.
Битрейт                                  : 815 Кбит/сек
Ширина                                   : 640 пикселей
Высота                                   : 352 пикселя
Соотношение сторон                       : 16:9
Режим частоты кадров                     : Постоянный
Частота кадров                           : 23,976 кадра/сек
Цветовое пространство                    : YUV
Субдискретизация насыщенности            : 4:2:0
Битовая глубина                          : 8 бит
Тип развёртки                            : Прогрессивная
Бит/(Пиксели*Кадры)                      : 0.151
Размер потока                            : 299 Мбайт (86%)
Библиотека кодирования                   : x264 core 128 r2216M 198a7ea
Настройки программы                      : cabac=1 / ref=3 / deblock=1:0:0 / analyse=0x1:0x131 / me=hex / subme=7 / psy=1 / psy_rd=1.00:0.20 / mixed_ref=1 / me_range=16 / chroma_me=1 / trellis=1 / 8x8dct=0 / cqm=0 / deadzone=21,11 / fast_pskip=1 / chroma_qp_offset=-3 / threads=8 / lookahead_threads=1 / sliced_threads=0 / nr=0 / decimate=1 / interlaced=0 / bluray_compat=0 / constrained_intra=0 / bframes=3 / b_pyramid=0 / b_adapt=2 / b_bias=0 / direct=3 / weightb=1 / open_gop=0 / weightp=0 / keyint=230 / keyint_min=23 / scenecut=40 / intra_refresh=0 / rc_lookahead=40 / rc=crf / mbtree=1 / crf=20.0 / qcomp=0.60 / qpmin=10 / qpmax=51 / qpstep=4 / vbv_maxrate=5000 / vbv_bufsize=1835 / crf_max=30.0 / nal_hrd=none / ip_ratio=1.40 / aq=1:1.00

Аудио
Идентификатор                            : 2
Формат                                   : AAC
Формат/Информация                        : Advanced Audio Codec
Профиль формата                          : LC
Идентификатор кодека                     : 40
Продолжительность                        : 51 м.
Вид битрейта                             : Постоянный
Битрейт                                  : 128 Кбит/сек
Каналы                                   : 2 канала
Расположение каналов                     : Front: L R
Частота                                  : 48,0 КГц
Метод сжатия                             : С потерями
Задержка видео                           : 42 мс.
Размер потока                            : 46,9 Мбайт (13%)



   Похожие торренты   Торрент   Размер 
В этой теме нет новых непрочитанных сообщений. Спартак: кровь и песок / Spartacus: Blood and Sand + Спартак: Боги Арены / Spartacus: Gods of the Arena [s01] (2010-2011) HDTVRip-AVC

82 | 36

17.03 ГБ

В этой теме нет новых непрочитанных сообщений. Спартак: Боги Арены / Spartacus: Gods of the Arena [01x01-06] (2011) HDTVRip LostFilm

364 | 38

2.83 ГБ

В этой теме нет новых непрочитанных сообщений. Спартак: Боги арены / Spartacus: Gods of the Arena [01x01-06] (2011) HDTVRip от Scarabey | LostFilm

127 | 26

7.3 ГБ

В этой теме нет новых непрочитанных сообщений. Спартак: Боги арены / Spartacus: Gods of the Arena [01x01-06] (2011) HDTVRip 720p от LostFilm

163 | 18

11.31 ГБ

В этой теме нет новых непрочитанных сообщений. Спартак: Боги арены / Spartacus: Gods of the Arena [01x01-06] (2011) HDTVRip от Scarabey | LostFilm

17 | 4

4.28 ГБ

В этой теме нет новых непрочитанных сообщений. Спартак: Боги арены / Spartacus: Gods of the Arena [01x01-06] (2011) HDTVRip от Scarabey | LostFilm

38 | 16

4.28 ГБ

В этой теме нет новых непрочитанных сообщений. Спартак: Боги арены / Spartacus: Gods of the Arena [01x01-06] (2011) HDTVRip от Scarabey | LostFilm

117 | 24

2.23 ГБ




Вы не можете начинать темы
Вы не можете отвечать на сообщения
Вы не можете редактировать свои сообщения
Вы не можете удалять свои сообщения
Вы не можете добавлять вложения

Перейти:  
Для Мосгорсуда, Роскомнадзора и рекламодателей: mosgorsud-torrent[собачка]yandex.ru
 Вход
ppkBB3cker v.2 © 2008-2014 @ PPK
[ Time : 0.030s | 16 Queries | GZIP : Off ]

Торрент трекер RUTOR.IN, Не можете зайти на rutor.org? Какой новый адрес рутор? Какое зеркало рутор? Не работает rutor.org и зеркала? Тогда наш торрент специально для вас. Rutor.in неофициальное зеркало rutor. В случае если у Вас заблокирован rutor или вдруг Вы не можете на него зайти, то Вы без труда сможете скачать бесплатно и без рекламы последние новинки кино, игр, сериалов и прочего у нас, на Rutor.in. Не нужно использовать прокси, чтобы зайти на рутор, достаточно воспользоваться нашим ресурсом. Все новые фильмы, игры, сериалы, книги и музыка за 2013 и 2014 годы через торрент бесплатно. Скачивайте фильмы в хорошем качестве, игры для пк, xbox, playstation без регистрации. У нас вы найдете новые Зарубежные сериалы и Русские сериалы 2013, 2014, 2015 годов. Оставайтесь с нами, качайте любимые фильмы, игры, сериалы, книги и музыку.
cron