img image001 image001 image001 image001 image001 image001 image001 image001 image001 image001 image001 image001 image001 image001 image001 image001

Planets Sun Sun Sun
Статистика раздачи
Автор: Снежана | Размер: 65.81 ГБ | Добавлен: 25 июл 2013
Раздают: 35    Качают: 23
Скачать торрент
Скачать торрент
Описание торрента

СообщениеДобавлено: 25 июл 2013 










Игра престолов / Game of Thrones









Год выпуска: 2011-2013
Выпущено: США, Home Box Office (HBO), Television 360, Grok! Studio, Generator Entertainment, Bighead Littlehead
Жанр: Фэнтези, драма, приключения
Продолжительность: 00:58:00
Сезон: 1-3
Серии: 1-30
Количество серий в сезоне: 30
Озвучка: 1-2Сезона:Профессиональная многоголосая закадровая(AlexFilm)Евгения Тихонова, Анна Тух, Пётр Иващенко (Гланц), Александр Воронов, Александр Дасевич, Константин Погодаев, Михаил Суслов,Перевод: Александр Митраков (Opel), Илья Белкин (Volverine73) & Westeros (форум Ночного Дозора у Стены)
Озвучка: 3Сезона:Профессиональная многоголосая закадровая(NewStudio & Mekc При поддержке сайта AVIASALES RU)Александр Дасевич, Юрий Маляров, Наталья Терешкова, Екатерина Семенова,Перевод: Мекс, Эрадан, Selena под редакцией Мекс'а
Субтитры: Русские, английские




Официальный сайт сериала

Режиссер: Алан Тейлор, Даниэль Минахан, Дэвид Наттер, Брайан Кирк, Тимоти Ван Паттен, Дэвид Петрарка




В ролях: Лена Хиди, Питер Динклэйдж, Мишель Фэйрли, Эмилия Кларк, Кит Харингтон, Николай Костер-Валдау, Иэн Глен, Эйден Гиллен, Элфи Оуэн-Аллен, Мэйси Уильямс, Софи Тернер, Джек Глисон, Исаак Хемпстид-Райт, Ричард Мэдден, Джером Флинн





Эпический шедевр Игра Престолов на HBO возвращается в третьем сезоне, с более лютыми сражениями, предательствами и разрушительной бурей смертей, так как каждый борется за право на Железный Трон. Теперь, когда магия становится все сильнее и драконы на свободе, никто не знает, кто может оказаться под угрозой, а кто у власти. Люди, отказавшиеся жить по законам Семи Королевств, получили название одичалых и были изгнаны за Стену, на страже которой стоит Ночной Дозор. Но орден был учрежден, чтобы защищать мир людей от совсем другой силы — Белых Ходоков, ныне пробудившихся и угрожающих всему живому. Король одичалых Манс готов на все, чтобы убедить Дозор пропустить свой народ за Стену. Однако южные лорды и короли как и прежде глухи к сообщениям о скорой зиме, о пробуждении Иных и о вторжении одичалых. Король Станнис Баратеон скрылся после поражения на Черноводной в своем замке, король Бейлон Грейджой разоряет побережье, король Робб теряет союзников, а король Джоффри, напротив, имея в союзниках два самых влиятельных дома Королевств, надеется вскоре разбить всех своих врагов. Третий сезон Игры престолов поставлен по первой половине третьего тома Песни Льда и Пламени (Буря мечей).





1-2сезон
Качество : BDRip-AVC 1080p
Формат: MPEG-4
Видео кодек: H264
Видео: 5190Кбит/сек,1920х1080(16.9),в 25.000кадр/сек,AVC(Baseline@L5.0)(1Ref Frames)
Аудио кодек: AAC
Аудио Russian Dolby Digital 5.1:455Кбит/сек,44.1КГц,6каналов,AAC,(Version4)(LC)
3сезон
Качество : HDTVRip-AVC 1080p
Формат: MPEG-4
Видео кодек: H264
Видео: 5224Кбит/сек,1920х1080(16.9),в 25.000кадр/сек,AVC(Baseline@L5.0)(1Ref Frames)
Аудио кодек: AAC
Аудио Russian Dolby Digital 5.1:454Кбит/сек,44.1КГц,6каналов,AAC,(Version4)(LC)






Звуковая дорожка сделана путем наложения чистого голоса озвучивателей на центральный канал оригинальной дорожки. Качество идентично звуковой дорожке.






Эпизод 1 - Зима Близко | Winter is coming
Эпизод 2 - Королевский Тракт | The Kingsroad
Эпизод 3 - Лорд Сноу | Lord Snow
Эпизод 4 - Калеки, бастарды и сломанные вещи | Cripples, Bastards, and Broken Things
Эпизод 5 - Волк и Лев | The Wolf and the Lion
Эпизод 6 - Золотая корона | A Golden Crown
Эпизод 7 - Ты побеждаешь или погибаешь | You Win or You Die
Эпизод 8 - Острый конец | The Pointy End
Эпизод 9 - Бэйлор | Baelor
Эпизод 10 - Пламя и кровь | Fire and Blood






Эпизод 1 - The North Remembers / Север помнит
Эпизод 2 - The Night Lands / Ночные земли
Эпизод 3 - What Is Dead May Never Die / То, что мертво, умереть не может
Эпизод 4 - Garden of Bones / Сад костей
Эпизод 5 - The Ghost of Harrenhal / Призрак Харренхола
Эпизод 6 - The Old Gods and the New / Боги старые и новые
Эпизод 7 - A Man Without Honor / Человек без чести
Эпизод 8 - The Prince of Winterfell / Принц Винтерфелла
Эпизод 9 - Blackwater / Черноводная
Эпизод 10 - Valar Morghulis / Валар Моргулис






01. Валар Дохаэрис / Valar Dohaeris
02. Черные крылья, черные вести / Dark Wings, Dark Word
03. Стезя страданий / Walk of Punishment
04. Теперь его дозор окончен / And Now His Watch is Ended
05. Поцелованная огнем / Kissed by Fire
06. Подъем / The Climb
07. Медведь и прекрасная дева / The Bear and the Maiden Fair
08. Младшие Сыны / Second Sons
09. Рейны из Кастамере / The Rains of Castamere
10. Миса / Mhysa







General
Полное имя : D:Ф А Н Т А С Т И К А +П Р И К Л Ю Ч Е Н И Я + Ф Э Н Т А З ИGame_OF_Thrones_S01-S03_RUS[AlexFilm+NewStudio]_DD5.1_x264_Nikolai.Baranov_ВDRip-HDRip_1080pS01Game_OF_Thrones_2011_S01E01_RUS[AlexFilm]_DD5.1_x264_Nikolai.Baranov_ВDRip-AVC_(1080p).mp4
Формат : MPEG-4
Профиль формата : Base Media
Идентификатор кодека : isom
Размер файла : 2.43 GiB
Продолжительность : 1h 1mn
Режим общего битрейта : Variable
Общий поток : 5 649 Kbps
Дата кодирования : UTC 2013-04-30 20:36:31
Дата пометки : UTC 2013-04-30 20:36:31
Программа кодирования : Lavf51.12.1
Video
Идентификатор : 1
Формат : AVC
Формат/Информация : Advanced Video Codec
Профиль формата : Baseline@L5.0
Параметр CABAC формата : No
Параметр ReFrames формата : 1 frame
Параметр GOP формата : M=1, N=12
Идентификатор кодека : avc1
Идентификатор кодека/Информация : Advanced Video Coding
Продолжительность : 1h 1mn
Вид битрейта : Variable
Битрейт : 5 190 Kbps
Максимальный битрейт : 7 500 Kbps
Ширина : 1 920 pixels
Высота : 1 080 pixels
Соотношение сторон : 16:9
Режим частоты кадров : Constant
Частота кадров : 25.000 fps
Частота кадров в оригинале : 24.000 fps
Цветовое пространство : YUV
Субдискретизация насыщенности : 4:2:0
Битовая глубина : 8 bits
Тип развёртки : Progressive
Бит/(Пиксели*Кадры) : 0.100
Размер потока : 2.23 GiB (92%)
Дата кодирования : UTC 2013-04-30 20:36:31
Дата пометки : UTC 2013-04-30 20:36:31
Audio
Идентификатор : 2
Формат : AAC
Формат/Информация : Advanced Audio Codec
Профиль формата : LC
Идентификатор кодека : 40
Продолжительность : 1h 1mn
Вид битрейта : Variable
Битрейт : 455 Kbps
Каналы : 6 channels
Расположение каналов : Front: L C R, Side: L R, LFE
Частота : 44.1 KHz
Метод сжатия : Lossy
Размер потока : 201 MiB (8%)
Дата кодирования : UTC 2013-04-30 20:36:31
Дата пометки : UTC 2013-04-30 20:36:31






General
Полное имя : D:Ф А Н Т А С Т И К А +П Р И К Л Ю Ч Е Н И Я + Ф Э Н Т А З ИGame_OF_Thrones_S01-S03_RUS[AlexFilm+NewStudio]_DD5.1_x264_Nikolai.Baranov_ВDRip-HDRip_1080pS02Game_OF_Thrones_2012_S02E01_RUS[AlexFilm]_DD5.1_x264_Nikolai.Baranov_ВDRip-AVC_(1080p).mp4
Формат : MPEG-4
Профиль формата : Base Media
Идентификатор кодека : isom
Размер файла : 2.06 GiB
Продолжительность : 52mn 40s
Режим общего битрейта : Variable
Общий поток : 5 610 Kbps
Дата кодирования : UTC 2013-05-12 07:40:02
Дата пометки : UTC 2013-05-12 07:40:02
Программа кодирования : Lavf51.12.1
Video
Идентификатор : 1
Формат : AVC
Формат/Информация : Advanced Video Codec
Профиль формата : Baseline@L5.0
Параметр CABAC формата : No
Параметр ReFrames формата : 1 frame
Параметр GOP формата : M=1, N=12
Идентификатор кодека : avc1
Идентификатор кодека/Информация : Advanced Video Coding
Продолжительность : 52mn 40s
Вид битрейта : Variable
Битрейт : 5 151 Kbps
Максимальный битрейт : 7 500 Kbps
Ширина : 1 920 pixels
Высота : 1 080 pixels
Соотношение сторон : 16:9
Режим частоты кадров : Constant
Частота кадров : 25.000 fps
Частота кадров в оригинале : 24.000 fps
Цветовое пространство : YUV
Субдискретизация насыщенности : 4:2:0
Битовая глубина : 8 bits
Тип развёртки : Progressive
Бит/(Пиксели*Кадры) : 0.099
Размер потока : 1.90 GiB (92%)
Дата кодирования : UTC 2013-05-12 07:40:02
Дата пометки : UTC 2013-05-12 07:40:02
Audio
Идентификатор : 2
Формат : AAC
Формат/Информация : Advanced Audio Codec
Профиль формата : LC
Идентификатор кодека : 40
Продолжительность : 52mn 40s
Вид битрейта : Variable
Битрейт : 455 Kbps
Каналы : 6 channels
Расположение каналов : Front: L C R, Side: L R, LFE
Частота : 44.1 KHz
Метод сжатия : Lossy
Размер потока : 171 MiB (8%)
Дата кодирования : UTC 2013-05-12 07:40:02
Дата пометки : UTC 2013-05-12 07:40:02






General
Полное имя : D:__ECC9~1Game_OF_Thrones_S01-S03_RUS[AlexFilm+NewStudio]_DD5.1_x264_Nikolai.Baranov_ВDRip-HDRip_1080pS03Game._OF_Thrones_2013_S03E01_RUS[NewStudio_&_Mekc]_DD5.1_x264_Nikolai.Baranov_HDTVRip-AVC_(1080p).mp4
Формат : MPEG-4
Профиль формата : Base Media
Идентификатор кодека : isom
Размер файла : 2.27 GiB
Продолжительность : 57mn 10s
Режим общего битрейта : Variable
Общий поток : 5 683 Kbps
Дата кодирования : UTC 2013-04-10 05:35:05
Дата пометки : UTC 2013-04-10 05:35:05
Программа кодирования : Lavf51.12.1
Video
Идентификатор : 1
Формат : AVC
Формат/Информация : Advanced Video Codec
Профиль формата : Baseline@L5.0
Параметр CABAC формата : No
Параметр ReFrames формата : 1 frame
Параметр GOP формата : M=1, N=12
Идентификатор кодека : avc1
Идентификатор кодека/Информация : Advanced Video Coding
Продолжительность : 57mn 10s
Вид битрейта : Variable
Битрейт : 5 224 Kbps
Максимальный битрейт : 7 500 Kbps
Ширина : 1 920 pixels
Высота : 1 080 pixels
Соотношение сторон : 16:9
Режим частоты кадров : Constant
Частота кадров : 25.000 fps
Частота кадров в оригинале : 24.000 fps
Цветовое пространство : YUV
Субдискретизация насыщенности : 4:2:0
Битовая глубина : 8 bits
Тип развёртки : Progressive
Бит/(Пиксели*Кадры) : 0.101
Размер потока : 2.09 GiB (92%)
Дата кодирования : UTC 2013-04-10 05:35:05
Дата пометки : UTC 2013-04-10 05:35:05
Audio
Идентификатор : 2
Формат : AAC
Формат/Информация : Advanced Audio Codec
Профиль формата : LC
Идентификатор кодека : 40
Продолжительность : 57mn 10s
Вид битрейта : Variable
Битрейт : 454 Kbps
Каналы : 6 channels
Расположение каналов : Front: L C R, Side: L R, LFE
Частота : 44.1 KHz
Метод сжатия : Lossy
Размер потока : 186 MiB (8%)
Дата кодирования : UTC 2013-04-10 05:35:05
Дата пометки : UTC 2013-04-10 05:35:05






























1сезон




2сезон




3сезон





1. Открыть торрент
2. Снять галки с тех файлов торрента, которые мы не хотим закачивать. Оставляем только на нужных нам файлах (файле).
3. Нажать О.К.
В клиенте utorrent
Инструкция
1) Открыть торрент

2) Снять галки с тех файлов торрента, которые мы не хотим закачивать:
* либо вручную, снимая с каждого файла галку( скрин №1)
* либо, нажав кнопку "Снять метки (Select None)", сняв сразу со всех файлов(скрин №2)
№1

№2

Оставляем только на нужных нам файлах (файле).

3)Нажать О.К






Внимание!!! 12.06. 2013. РАЗДАЧА ОБНОВЛЕНА.ФИНАЛ СЕЗОНА.ОБНОВИТЕ ТОРЕНТ ФАЙЛ.ПРИЯТНОГО ПРОСМОТРА.




Релиз от: Nikolai.Baranov



















   Похожие торренты   Торрент   Размер 
В этой теме нет новых непрочитанных сообщений. Игра престолов / Game of Thrones [01-04x01-33 из 40] (2011-2014) BDRip, HDTVRip-AVC 1080p | AlexFilm, NewStudio

2 | 36

75.86 ГБ

В этой теме нет новых непрочитанных сообщений. Игра престолов / Game of Thrones [01-04x01-31 из 40] (2011-2014) BDRip-AVC , HDTVRip-AVC-1080p l AlexFilm,NewStudio

5 | 110

69.34 ГБ

В этой теме нет новых непрочитанных сообщений. Игра престолов / Game of Thrones [01х06-10 из 10] (2011) BDRip 1080p

3 | 7

22.9 ГБ

В этой теме нет новых непрочитанных сообщений. Игра престолов / Game of Thrones [S01] (2011) BDRip 1080p by StarK

4 | 16

59.33 ГБ

В этой теме нет новых непрочитанных сообщений. Игра престолов / Game of Thrones [01х01-05 из 10] (2011) BDRip 1080p

8 | 5

22.57 ГБ

В этой теме нет новых непрочитанных сообщений. Игра престолов / Game of Thrones [S01-S04] (2011-2014) BDRip 1080p | LostFilm

41 | 132

153.82 ГБ

В этой теме нет новых непрочитанных сообщений. Игра престолов / Game of Thrones [S01-S04] (2011-2014) BDRip 1080p | LostFilm

70 | 146

169.15 ГБ




Вы не можете начинать темы
Вы не можете отвечать на сообщения
Вы не можете редактировать свои сообщения
Вы не можете удалять свои сообщения
Вы не можете добавлять вложения

Перейти:  
 Вход
ppkBB3cker v.2 © 2008-2014 @ PPK
[ Time : 0.478s | 17 Queries | GZIP : Off ]

cron