img image001 image001 image001 image001 image001 image001 image001 image001 image001 image001 image001 image001 image001 image001 image001

Planets Sun Sun Sun
Статистика раздачи
Автор: Снежана | Размер: 19.01 ГБ | Добавлен: 25 июл 2013
Раздают: 257    Качают: 87
Скачать торрент
Скачать торрент
Описание торрента

СообщениеДобавлено: 25 июл 2013 

#77

Название: Игра престолов
Оригинальное название: Game of Thrones
Жанр:: фэнтези, драма, приключения
Год выпуска: 2013
Режиссёр: Алан Тейлор, Даниэль Минахан, Дэвид Наттер, Брайан Кирк, Тимоти Ван Паттен, Дэвид Петрарка
В ролях: Лена Хиди, Питер Динклэйдж, Мишель Фэйрли, Эмилия Кларк, Кит Харингтон, Николай Костер-Валдау, Иэн Глен, Эйден Гиллен, Элфи Оуэн-Аллен, Мэйси Уильямс, Софи Тернер, Джек Глисон, Исаак Хемпстид-Райт, Ричард Мэдден, Джером Флинн, Конлет Хилл, Дональд Самптер, Рори МакКанн, Амрита Ачария, Чарльз Дэнс, Джон Брэдли, Кристиан Нэйрн, Сибель Кекилли, Джеймс Космо, Стивен Диллэйн, Гетин Энтони, Гвендолин Кристи, Натали Дормер, Уна Чаплин, Нонсо Анози, Роуз Лесли, Оуэн Тил, Уилко Джонсон, Питер Вон

Описание: Люди, отказавшиеся жить по законам Семи Королевств, получили название одичалых и были изгнаны за Стену, на страже которой стоит Ночной Дозор. Но орден был учрежден, чтобы защищать мир людей от совсем другой силы — Белых Ходоков, ныне пробудившихся и угрожающих всему живому. Король одичалых Манс готов на все, чтобы убедить Дозор пропустить свой народ за Стену.
Однако южные лорды и короли как и прежде глухи к сообщениям о скорой зиме, о пробуждении Иных и о вторжении одичалых. Король Станнис Баратеон скрылся после поражения на Черноводной в своем замке, король Бейлон Грейджой разоряет побережье, король Робб теряет союзников, а король Джоффри, напротив, имея в союзниках два самых влиятельных дома Королевств, надеется вскоре разбить всех своих врагов. Третий сезон Игры престолов поставлен по первой половине третьего тома Песни Льда и Пламени (Буря мечей).

Выпущено: США, Северная Ирландия / HBO, Northern Ireland Scr
Продолжительность: 10 х ~ 00:57:00
Перевод: Профессиональный (многоголосый, закадровый) - LostFilm
Русские субтитры: Русские, английские



Качество: WEB-DL 720p
Формат: МКV
Видео: MPEG-4 AVC, ~4000 Кбит/с, 1280x720
Аудио rus: АС3, 6 ch, 384 Кбит/с
Аудио eng: АС3, 6 ch, 384 Кбит/с



















01. Valar Dohaeris / Валар Дохариес
02. Черные крылья, черные вести / Dark Wings, Dark Words
03. Стезя страданий / Walk of Punishment
04. Теперь его дозор окончен / And Now His Watch is Ended
05. Поцелованная огнем / Kissed by Fire
06. Подъем / The Climb
07. Медведь и прекрасная дева / The Bear and the Maiden Fair
08. Младшие Сыны / Second Sons
09. Рейны из Кастамере / The Rains of Castamere
10. Миса / Mhysa
Формат : Matroska
Версия формата : Version 2
Размер файла : 1,86 Гбайт
Продолжительность : 54 м.
Общий поток : 4875 Кбит/сек
Дата кодирования : UTC 2013-04-03 19:28:29
Программа кодирования : mkvmerge v5.8.0 ('No Sleep / Pillow') built on Sep 2 2012 15:37:04
Библиотека кодирования : libebml v1.2.3 + libmatroska v1.3.0

Видео
Идентификатор : 1
Формат : AVC
Формат/Информация : Advanced Video Codec
Профиль формата : High@L3.1
Параметр CABAC формата : Нет
Параметр ReFrames формата : 2 кадра
Параметр GOP формата : N=1
Идентификатор кодека : V_MPEG4/ISO/AVC
Продолжительность : 54 м.
Битрейт : 4010 Кбит/сек
Ширина : 1280 пикселей
Высота : 720 пикселей
Соотношение сторон : 16:9
Режим частоты кадров : Постоянный
Частота кадров : 23,976 кадра/сек
Цветовое пространство : YUV
Субдискретизация насыщенности : 4:2:0
Битовая глубина : 8 бит
Тип развёртки : Прогрессивная
Бит/(Пиксели*Кадры) : 0.181
Размер потока : 1,53 Гбайт (82%)
Язык : English
Default : Да
Forced : Нет
Основные цвета : BT.709
Характеристики трансфера : BT.709
Коэффициенты матрицы : BT.709

Аудио #1
Идентификатор : 2
Формат : AC-3
Формат/Информация : Audio Coding 3
Расширение режима : CM (complete main)
Параметр Endianness формата : Big
Идентификатор кодека : A_AC3
Продолжительность : 54 м.
Вид битрейта : Постоянный
Битрейт : 384 Кбит/сек
Каналы : 6 каналов
Расположение каналов : Front: L C R, Side: L R, LFE
Частота : 48,0 КГц
Битовая глубина : 16 бит
Метод сжатия : С потерями
Размер потока : 150 Мбайт (8%)
Заголовок : Кравец
Язык : Russian
Default : Да
Forced : Нет

Аудио #2
Идентификатор : 3
Формат : AC-3
Формат/Информация : Audio Coding 3
Расширение режима : CM (complete main)
Параметр Endianness формата : Big
Идентификатор кодека : A_AC3
Продолжительность : 54 м.
Вид битрейта : Постоянный
Битрейт : 384 Кбит/сек
Каналы : 6 каналов
Расположение каналов : Front: L C R, Side: L R, LFE
Частота : 48,0 КГц
Битовая глубина : 16 бит
Метод сжатия : С потерями
Размер потока : 150 Мбайт (8%)
Язык : English
Default : Нет
Forced : Нет

Текст #1
Идентификатор : 4
Формат : UTF-8
Идентификатор кодека : S_TEXT/UTF8
Идентификатор кодека/Информация : UTF-8 Plain Text
Заголовок : 7kingdoms
Язык : Russian
Default : Нет
Forced : Нет

Текст #2
Идентификатор : 5
Формат : UTF-8
Идентификатор кодека : S_TEXT/UTF8
Идентификатор кодека/Информация : UTF-8 Plain Text
Заголовок : AmberTeam
Язык : Russian
Default : Нет
Forced : Нет

Текст #3
Идентификатор : 6
Формат : UTF-8
Идентификатор кодека : S_TEXT/UTF8
Идентификатор кодека/Информация : UTF-8 Plain Text
Язык : English
Default : Нет
Forced : Нет


Релиз от:



   Похожие торренты   Торрент   Размер 
В этой теме нет новых непрочитанных сообщений. Игра престолов / Game of Thrones [S01-03] (2011-2013) HDTVRip 720p | LostFilm

526 | 545

61.25 ГБ

В этой теме нет новых непрочитанных сообщений. Игра престолов / Game of Thrones [03x01-10] (2013) BDRip 720p | LostFilm, AlexFilm

481 | 204

26.12 ГБ

В этой теме нет новых непрочитанных сообщений. Игра престолов / Game of Thrones [S03] (2013) HDTVRip | LostFilm | КПК

2010 | 444

2.07 ГБ

В этой теме нет новых непрочитанных сообщений. Игра престолов / Game of Thrones [S03] (2013) WEB-DLRip | LostFilm

428 | 77

5.84 ГБ

В этой теме нет новых непрочитанных сообщений. Игра престолов / Game of Thrones [S03] (2013) WEB-DLRip | LostFilm

144 | 72

9.33 ГБ

В этой теме нет новых непрочитанных сообщений. Игра престолов / Game of Thrones [S03] (2013) WEB-DLRip-AVC | LostFilm

309 | 40

8.3 ГБ

В этой теме нет новых непрочитанных сообщений. Игра престолов / Game of Thrones [S02] (2012) HDTVRip 720p | LostFilm

344 | 63

19.36 ГБ




Вы не можете начинать темы
Вы не можете отвечать на сообщения
Вы не можете редактировать свои сообщения
Вы не можете удалять свои сообщения
Вы не можете добавлять вложения

Перейти:  
Для Мосгорсуда, Роскомнадзора и рекламодателей: mosgorsud-torrent[собачка]yandex.ru
 Вход
ppkBB3cker v.2 © 2008-2014 @ PPK
[ Time : 0.028s | 14 Queries | GZIP : On ]

Торрент трекер RUTOR.IN, Не можете зайти на rutor.org? Какой новый адрес рутор? Какое зеркало рутор? Не работает rutor.org и зеркала? Тогда наш торрент специально для вас. Rutor.in неофициальное зеркало rutor. В случае если у Вас заблокирован rutor или вдруг Вы не можете на него зайти, то Вы без труда сможете скачать бесплатно и без рекламы последние новинки кино, игр, сериалов и прочего у нас, на Rutor.in. Не нужно использовать прокси, чтобы зайти на рутор, достаточно воспользоваться нашим ресурсом. Все новые фильмы, игры, сериалы, книги и музыка за 2013 и 2014 годы через торрент бесплатно. Скачивайте фильмы в хорошем качестве, игры для пк, xbox, playstation без регистрации. У нас вы найдете новые Зарубежные сериалы и Русские сериалы 2013, 2014, 2015 годов. Оставайтесь с нами, качайте любимые фильмы, игры, сериалы, книги и музыку.