img image001 image001 image001 image001 image001 image001 image001 image001 image001 image001 image001 image001 image001 image001 image001

Planets Sun Sun Sun
Статистика раздачи
Автор: Снежана | Размер: 3.13 ГБ | Добавлен: 25 июл 2013
Раздают: 30    Качают: 10
Скачать торрент
Скачать торрент
Описание торрента

СообщениеДобавлено: 25 июл 2013 

#77

Информация о фильме
Название: Спартак: Война проклятых
Оригинальное название: Spartacus: War of the Damned
Год выхода: 2013
Жанр: боевик, драма, приключения
Режиссер: Майкл Херст, Рик Джейкобсон, Джесси Уарн
В ролях: Лиам МакИнтайр, Ману Беннетт, Люси Лоулесс, Вива Бьянка, Крэйг Паркер, Питер Менса, Катрина Ло, Синтия Аддай-Робинсон, Брук Уильямс

О фильме:
К восстанию Спартака присоединились тысячи. Вместе с Криксом и Ганником он побеждает одного римского командира за другим. Отчаявшись, Рим обращается за помощью к богатому, амбициозному Марку Крассу и молодому Юлию Цезарю...
Страна: США
Продолжительность серии: ~55 мин.
Перевод: Профессиональный (многоголосый, закадровый) (студия «Кравец»)

Файл
Кодек: H264 (AVC)
Качество: HDTVRip | КПК
Видео: AVC at ~823 Кбит/сек, 640 x 352 (1.800) at 23.976 fps
Звук: AAC at 128 Кбит/сек, 2 канала, 48,0 КГц
Субтитры: отсутствуют

Код:
 Общее
Полное имя                               : Спартак Сезон 3 серия  10.mp4
Формат                                   : MPEG-4
Профиль формата                          : Base Media
Идентификатор кодека                     : isom
Размер файла                             : 406 Мбайт
Продолжительность                        : 59 м.
Общий поток                              : 956 Кбит/сек
Исполнитель                              : RG BrodimCom
Программа кодирования                    : XviD4PSP 6.0 / 54.29.105

Видео
Идентификатор                            : 1
Формат                                   : AVC
Формат/Информация                        : Advanced Video Codec
Профиль формата                          : Main@L4.1
Параметр CABAC формата                   : Да
Параметр ReFrames формата                : 3 кадра
Идентификатор кодека                     : avc1
Идентификатор кодека/Информация          : Advanced Video Coding
Продолжительность                        : 59 м.
Битрейт                                  : 823 Кбит/сек
Ширина                                   : 640 пикселей
Высота                                   : 352 пикселя
Соотношение сторон                       : 16:9
Режим частоты кадров                     : Постоянный
Частота кадров                           : 23,976 кадра/сек
Цветовое пространство                    : YUV
Субдискретизация насыщенности            : 4:2:0
Битовая глубина                          : 8 бит
Тип развёртки                            : Прогрессивная
Бит/(Пиксели*Кадры)                      : 0.152
Размер потока                            : 349 Мбайт (86%)
Библиотека кодирования                   : x264 core 128 r2216M 198a7ea
Настройки программы                      : cabac=1 / ref=3 / deblock=1:0:0 / analyse=0x1:0x131 / me=hex / subme=7 / psy=1 / psy_rd=1.00:0.20 / mixed_ref=1 / me_range=16 / chroma_me=1 / trellis=1 / 8x8dct=0 / cqm=0 / deadzone=21,11 / fast_pskip=1 / chroma_qp_offset=-3 / threads=8 / lookahead_threads=1 / sliced_threads=0 / nr=0 / decimate=1 / interlaced=0 / bluray_compat=0 / constrained_intra=0 / bframes=3 / b_pyramid=0 / b_adapt=2 / b_bias=0 / direct=3 / weightb=1 / open_gop=0 / weightp=0 / keyint=230 / keyint_min=23 / scenecut=40 / intra_refresh=0 / rc_lookahead=40 / rc=crf / mbtree=1 / crf=20.0 / qcomp=0.60 / qpmin=10 / qpmax=51 / qpstep=4 / vbv_maxrate=5000 / vbv_bufsize=1835 / crf_max=30.0 / nal_hrd=none / ip_ratio=1.40 / aq=1:1.00

Аудио
Идентификатор                            : 2
Формат                                   : AAC
Формат/Информация                        : Advanced Audio Codec
Профиль формата                          : LC
Идентификатор кодека                     : 40
Продолжительность                        : 59 м.
Вид битрейта                             : Постоянный
Битрейт                                  : 128 Кбит/сек
Каналы                                   : 2 канала
Расположение каналов                     : Front: L R
Частота                                  : 48,0 КГц
Метод сжатия                             : С потерями
Задержка видео                           : 42 мс.
Размер потока                            : 54,3 Мбайт (13%)



   Похожие торренты   Торрент   Размер 
В этой теме нет новых непрочитанных сообщений. Спартак: Война проклятых / Spartacus: War of the Damned [S03] (2013) HDTVRip | LostFilm

588 | 46

6.84 ГБ

В этой теме нет новых непрочитанных сообщений. Спартак: Война проклятых / Spartacus: War of the Damned [03х01-10 из 10] (2013) HDTVRip | Sub

4 | 2

4.42 ГБ

В этой теме нет новых непрочитанных сообщений. Спартак: Война проклятых / Spartacus: War of the Damned [S03] (2013) HDTVRip-AVC | LostFilm

58 | 8

8.29 ГБ

В этой теме нет новых непрочитанных сообщений. Спартак: Война проклятых / Spartacus: War of the Damned [S03] (2013) HDTVRip от Scarabey | Jaskier

15 | 3

7.17 ГБ

В этой теме нет новых непрочитанных сообщений. Спартак: Война проклятых / Spartacus: War of the Damned [S03] (2013) HDTVRip от Generalfilm | КПК | LostFilm

57 | 9

2.45 ГБ

В этой теме нет новых непрочитанных сообщений. Спартак: Война проклятых / Spartacus: War of the Damned [S03] (2013) HDTVRip 720p | Jaskier

15 | 7

16.14 ГБ

В этой теме нет новых непрочитанных сообщений. Спартак: Война проклятых / Spartacus: War of the Damned [S03] (2013) HDTVRip от Scarabey | LostFilm

21 | 7

9.26 ГБ




Вы не можете начинать темы
Вы не можете отвечать на сообщения
Вы не можете редактировать свои сообщения
Вы не можете удалять свои сообщения
Вы не можете добавлять вложения

Перейти:  
Для Мосгорсуда, Роскомнадзора и рекламодателей: mosgorsud-torrent[собачка]yandex.ru
 Вход
ppkBB3cker v.2 © 2008-2014 @ PPK
[ Time : 0.027s | 14 Queries | GZIP : On ]

Торрент трекер RUTOR.IN, Не можете зайти на rutor.org? Какой новый адрес рутор? Какое зеркало рутор? Не работает rutor.org и зеркала? Тогда наш торрент специально для вас. Rutor.in неофициальное зеркало rutor. В случае если у Вас заблокирован rutor или вдруг Вы не можете на него зайти, то Вы без труда сможете скачать бесплатно и без рекламы последние новинки кино, игр, сериалов и прочего у нас, на Rutor.in. Не нужно использовать прокси, чтобы зайти на рутор, достаточно воспользоваться нашим ресурсом. Все новые фильмы, игры, сериалы, книги и музыка за 2013 и 2014 годы через торрент бесплатно. Скачивайте фильмы в хорошем качестве, игры для пк, xbox, playstation без регистрации. У нас вы найдете новые Зарубежные сериалы и Русские сериалы 2013, 2014, 2015 годов. Оставайтесь с нами, качайте любимые фильмы, игры, сериалы, книги и музыку.