img image001 image001 image001 image001 image001 image001 image001 image001 image001 image001 image001 image001 image001 image001 image001

Planets Sun Sun Sun
Статистика раздачи
Автор: Снежана | Размер: 1.71 ГБ | Добавлен: 25 июл 2013
Раздают: 0    Качают: 1
Скачать торрент
Скачать торрент
Описание торрента

СообщениеДобавлено: 25 июл 2013 

Убойный Отдел: Уличные Будни / Homicide: Life on the Street

Год выпуска: 1998
Страна: США
Жанр: детектив, драма
Продолжительность: ~ 45 мин

Перевод: Субтитры
Русские субтитры: есть
Автор перевода: Shadonna

Режиссёр: Барри Левинсон

В ролях: Ричард Белцер, Яфет Котто, Кайл Секор, Кларк Джонсон, Андре Брауэр

Описание: «Убо́йный отде́л» (англ. Homicide: Life on the Street; 1993—1999) — детективный телевизионный сериал, созданный Полом Аттанасио. Исполнительные продюсеры — Том Фонтана и Барри Левинсон.
Одной из двух смен отдела по расследованию убийств полиции Балтимора руководит лейтенант Эл Джиарделло. Сериал рассказывает о жизни детективов из смены Джиарделло, которым приходится иметь дело как с убийствами, совершёнными на бытовой почве, так и с профессиональными преступниками и серийными убийцами. Много времени уделяется взаимоотношениям внутри отдела, а также личной жизни детективов.

Релиз:

Сэмпл: http://multi-up.com/813488

Качество: DVDRip
Формат: AVI
Видео кодек: XviD
Аудио кодек: MP3
Видео: 576x432 (1.33:1), 23.976 fps, XviD Final 1.0.2 (build 36) ~943 kbps avg, 0.16 bit/pixel
Аудио: 48 kHz, AC3 Dolby Digital, 2/0 (L,R) ch, ~192 kbps
Субтитры: в формате srt
General
Complete name : F:СериалыHomicide - Life On The Street - s06 (HamsterStudio.org)Homicide.Life.On.The.Street.6.08.HamsterStudio.org.avi
Format : AVI
Format/Info : Audio Video Interleave
File size : 348 MiB
Duration : 45mn 36s
Overall bit rate : 1 067 Kbps
Writing application : VirtualDubMod 1.5.10.1 (build 2439/release)
Writing library : VirtualDubMod build 2439/release

Video
ID : 0
Format : MPEG-4 Visual
Format profile : Advanced Simple@L5
Format settings, BVOP : 2
Format settings, QPel : No
Format settings, GMC : No warppoints
Format settings, Matrix : Default (H.263)
Codec ID : XVID
Codec ID/Hint : XviD
Duration : 45mn 36s
Bit rate : 868 Kbps
Width : 448 pixels
Height : 336 pixels
Display aspect ratio : 4:3
Frame rate : 23.976 fps
Color space : YUV
Chroma subsampling : 4:2:0
Bit depth : 8 bits
Scan type : Progressive
Compression mode : Lossy
Bits/(Pixel*Frame) : 0.241
Stream size : 283 MiB (81%)
Writing library : XviD 1.0.3 (UTC 2004-12-20)

Audio
ID : 1
Format : AC-3
Format/Info : Audio Coding 3
Mode extension : CM (complete main)
Format settings, Endianness : Big
Codec ID : 2000
Duration : 45mn 36s
Bit rate mode : Constant
Bit rate : 192 Kbps
Channel(s) : 2 channels
Channel positions : Front: L R
Sampling rate : 48.0 KHz
Bit depth : 16 bits
Compression mode : Lossy
Stream size : 62.6 MiB (18%)
Alignment : Split accross interleaves
Interleave, duration : 96 ms (2.30 video frames)
Interleave, preload duration : 500 ms




   Похожие торренты   Торрент   Размер 
В этой теме нет новых непрочитанных сообщений. Убойный отдел: Жизнь на улице / Homicide: Life on the street [06х01-16 из 23] (1998) DVDRip

7 | 8

5.52 ГБ

В этой теме нет новых непрочитанных сообщений. Убойный отдел: Жизнь на улице / Homicide: Life on the street [06х01-07 из 23] (1998) DVDRip

1 | 1

2.44 ГБ

В этой теме нет новых непрочитанных сообщений. Убойный отдел: Жизнь на улице / Homicide: Life on the street [S04] (1995-1996) DVDRip

4 | 8

8.45 ГБ

В этой теме нет новых непрочитанных сообщений. Убойный отдел: Жизнь на улице / Homicide: Life on the street [S03] (1994-1995) DVDRip

4 | 3

7.73 ГБ

В этой теме нет новых непрочитанных сообщений. Убойный отдел: Жизнь на улице / Homicide: Life on the street [S05] (1996-1997) DVDRip

14 | 4

8.4 ГБ

В этой теме нет новых непрочитанных сообщений. Убойный отдел: Жизнь на улице / Homicide: Life on the street [S01-02] (1993-1994) DVDRip

9 | 5

5.49 ГБ

В этой теме нет новых непрочитанных сообщений. Убойный отдел / Homicide: The Movie (2000) DVDRip | Sub

42 | 4

692.84 МБ




Вы не можете начинать темы
Вы не можете отвечать на сообщения
Вы не можете редактировать свои сообщения
Вы не можете удалять свои сообщения
Вы не можете добавлять вложения

Перейти:  
Для Мосгорсуда, Роскомнадзора и рекламодателей: mosgorsud-torrent[собачка]yandex.ru
 Вход
ppkBB3cker v.2 © 2008-2014 @ PPK
[ Time : 0.057s | 14 Queries | GZIP : Off ]

Торрент трекер RUTOR.IN, Не можете зайти на rutor.org? Какой новый адрес рутор? Какое зеркало рутор? Не работает rutor.org и зеркала? Тогда наш торрент специально для вас. Rutor.in неофициальное зеркало rutor. В случае если у Вас заблокирован rutor или вдруг Вы не можете на него зайти, то Вы без труда сможете скачать бесплатно и без рекламы последние новинки кино, игр, сериалов и прочего у нас, на Rutor.in. Не нужно использовать прокси, чтобы зайти на рутор, достаточно воспользоваться нашим ресурсом. Все новые фильмы, игры, сериалы, книги и музыка за 2013 и 2014 годы через торрент бесплатно. Скачивайте фильмы в хорошем качестве, игры для пк, xbox, playstation без регистрации. У нас вы найдете новые Зарубежные сериалы и Русские сериалы 2013, 2014, 2015 годов. Оставайтесь с нами, качайте любимые фильмы, игры, сериалы, книги и музыку.