img image001 image001 image001 image001 image001 image001 image001 image001 image001 image001 image001 image001 image001 image001 image001

Planets Sun Sun Sun
Статистика раздачи
Автор: Снежана | Размер: 2.45 ГБ | Добавлен: 25 июл 2013
Раздают: 162    Качают: 28
Скачать торрент
Скачать торрент
Описание торрента

СообщениеДобавлено: 25 июл 2013 

#77

Информация о фильме
Название: Игра Престолов
Оригинальное название: Game of Thrones
Год выхода: 2013
Жанр: Фэнтези, драма
Режиссер: Алан Тейлор, Даниэль Минахан, Дэвид Наттер, Брайан Кирк, Тимоти Ван Паттен, Дэвид Петрарка
В ролях: Лена Хиди, Питер Динклэйдж, Мишель Фэйрли, Эмилия Кларк, Кит Харингтон, Николай Костер-Валдау, Иэн Глен, Эйден Гиллен, Элфи Оуэн-Аллен, Мэйси Уильямс, Софи Тернер, Джек Глисон, Исаак Хемпстид-Райт, Ричард Мэдден, Джером Флинн, Конлет Хилл, Дональд Самптер, Рори МакКанн, Амрита Ачария, Чарльз Дэнс, Джон Брэдли, Кристиан Нэйрн, Сибель Кекилли, Джеймс Космо, Стивен Диллэйн, Гетин Энтони, Гвендолин Кристи, Натали Дормер, Уна Чаплин, Нонсо Анози, Роуз Лесли, Оуэн Тил, Уилко Джонсон, Питер Вон

О фильме:
Люди, отказавшиеся жить по законам Семи Королевств, получили название одичалых и были изгнаны за Стену, на страже которой стоит Ночной Дозор. Но орден был учрежден, чтобы защищать мир людей от совсем другой силы — Белых Ходоков, ныне пробудившихся и угрожающих всему живому. Король одичалых Манс готов на все, чтобы убедить Дозор пропустить свой народ за Стену.
Однако южные лорды и короли как и прежде глухи к сообщениям о скорой зиме, о пробуждении Иных и о вторжении одичалых. Король Станнис Баратеон скрылся после поражения на Черноводной в своем замке, король Бейлон Грейджой разоряет побережье, король Робб теряет союзников, а король Джоффри, напротив, имея в союзниках два самых влиятельных дома Королевств, надеется вскоре разбить всех своих врагов. Третий сезон Игры престолов поставлен по первой половине третьего тома Песни Льда и Пламени (Буря мечей).



01. Valar Dohaeris / Валар Дохариес
02. Черные крылья, черные вести / Dark Wings, Dark Word
03. Стезя страданий / Walk of Punishment
04. Теперь его дозор окончен / And Now His Watch is Ended
05. Поцелованная огнем / Kissed by Fire
06. Подъем / The Climb
07. Медведь и прекрасная дева / The Bear and the Maiden Fair
08. Младшие Сыны / Second Sons
09. Рейны из Кастамере / The Rains of Castamere
10. Миса / Mhysa

Страна: США, Северная Ирландия
Студия: НВО, Northern Ireland Scr
Продолжительность: 10 x ~00:57:00
Перевод: Профессиональный (многоголосый, закадровый) [LostFilm]

Файл
Формат: MP4
Качество: WEB-DLRip | КПК
Видео: MPEG-4 AVC (x264), 640x360, ~500 kbps, 23.976 fps
Аудио: AAC LC, 48.0 KHz, 2 ch, 128 Kbps
Субтитры: Нет

Раздача ведется путем добавления новых серий. 13.06.2013 Добавлена 10-я серия.

Семпл


K:киноIgra.Prestolov.Sezon3.2013.AVC.WEB-DLRip.KPK.GeneralfilmIgra.Prestolov.s03e08.2013.AVC.WEB-DLRip.KPK.Generalfilm.mp4
Format : MPEG-4
Format profile : Base Media
Codec ID : isom
File size : 254 MiB
Duration : 56mn 21s
Overall bit rate mode : Variable
Overall bit rate : 631 Kbps
Encoded date : UTC 2013-05-24 10:30:57
Tagged date : UTC 2013-05-24 10:30:57
Video #1
ID : 1
Format : AVC
Format/Info : Advanced Video Codec
Format profile : Baseline@L4.1
Format settings, CABAC : No
Format settings, ReFrames : 6 frames
Codec ID : avc1
Codec ID/Info : Advanced Video Coding
Duration : 56mn 21s
Bit rate : 500 Kbps
Maximum bit rate : 9 299 Kbps
Width : 640 pixels
Height : 360 pixels
Display aspect ratio : 16:9
Frame rate mode : Constant
Frame rate : 23.976 fps
Color space : YUV
Chroma subsampling : 4:2:0
Bit depth : 8 bits
Scan type : Progressive
Bits/(Pixel*Frame) : 0.091
Stream size : 202 MiB (79%)
Writing library : x264 core 116 r2074 2641b9e
Encoding settings : cabac=0 / ref=6 / deblock=1:-1:-1 / analyse=0x1:0x111 / me=umh / subme=7 / psy=1 / psy_rd=1.00:0.00 / mixed_ref=0 / me_range=16 / chroma_me=1 / trellis=1 / 8x8dct=0 / cqm=0 / deadzone=21,11 / fast_pskip=0 / chroma_qp_offset=-2 / threads=3 / sliced_threads=0 / nr=0 / decimate=1 / interlaced=0 / bluray_compat=0 / constrained_intra=0 / bframes=0 / weightp=0 / keyint=250 / keyint_min=23 / scenecut=40 / intra_refresh=0 / rc_lookahead=60 / rc=2pass / mbtree=1 / bitrate=500 / ratetol=1.0 / qcomp=0.60 / qpmin=0 / qpmax=69 / qpstep=4 / cplxblur=20.0 / qblur=0.5 / ip_ratio=1.40 / aq=1:1.00
Encoded date : UTC 2013-05-24 10:30:57
Tagged date : UTC 2013-05-24 10:31:12
Audio #2
ID : 2
Format : AAC
Format/Info : Advanced Audio Codec
Format profile : LC
Codec ID : 40
Duration : 56mn 21s
Bit rate mode : Variable
Bit rate : 128 Kbps
Maximum bit rate : 143 Kbps
Channel(s) : 2 channels
Channel positions : Front: L R
Sampling rate : 48.0 KHz
Compression mode : Lossy
Stream size : 51.6 MiB (20%)
Encoded date : UTC 2013-05-24 10:31:08
Tagged date : UTC 2013-05-24 10:31:12

Релиз от:



   Похожие торренты   Торрент   Размер 
В этой теме нет новых непрочитанных сообщений. Игра престолов / Game of Thrones [S03] (2013) WEB-DLRip-AVC | LostFilm

309 | 40

8.3 ГБ

В этой теме нет новых непрочитанных сообщений. Игра престолов / Game of Thrones [S03] (2013) WEB-DLRip | LostFilm

144 | 72

9.33 ГБ

В этой теме нет новых непрочитанных сообщений. Игра престолов / Game of Thrones [S03] (2013) WEB-DLRip | LostFilm

428 | 77

5.84 ГБ

В этой теме нет новых непрочитанных сообщений. Игра престолов / Game of Thrones [S03] (2013) WEB-DLRip | AlexFilm, Mekc, LostFilm

21 | 58

13.82 ГБ

В этой теме нет новых непрочитанных сообщений. Игра престолов / Game of Thrones [03x01] (2013) WEB-DLRip-AVC | LostFilm, AlexFilm, NovaFilm

1 | 3

1.15 ГБ

В этой теме нет новых непрочитанных сообщений. Игра престолов / Game of Thrones [S02] (2012) HDRip от Generalfilm | КПК | LostFilm

67 | 26

2.4 ГБ

В этой теме нет новых непрочитанных сообщений. Игра престолов / Game of Thrones [S03] (2013) HDTVRip | LostFilm | КПК

2010 | 444

2.07 ГБ




Вы не можете начинать темы
Вы не можете отвечать на сообщения
Вы не можете редактировать свои сообщения
Вы не можете удалять свои сообщения
Вы не можете добавлять вложения

Перейти:  
Для Мосгорсуда, Роскомнадзора и рекламодателей: mosgorsud-torrent[собачка]yandex.ru
 Вход
ppkBB3cker v.2 © 2008-2014 @ PPK
[ Time : 0.032s | 15 Queries | GZIP : Off ]

Торрент трекер RUTOR.IN, Не можете зайти на rutor.org? Какой новый адрес рутор? Какое зеркало рутор? Не работает rutor.org и зеркала? Тогда наш торрент специально для вас. Rutor.in неофициальное зеркало rutor. В случае если у Вас заблокирован rutor или вдруг Вы не можете на него зайти, то Вы без труда сможете скачать бесплатно и без рекламы последние новинки кино, игр, сериалов и прочего у нас, на Rutor.in. Не нужно использовать прокси, чтобы зайти на рутор, достаточно воспользоваться нашим ресурсом. Все новые фильмы, игры, сериалы, книги и музыка за 2013 и 2014 годы через торрент бесплатно. Скачивайте фильмы в хорошем качестве, игры для пк, xbox, playstation без регистрации. У нас вы найдете новые Зарубежные сериалы и Русские сериалы 2013, 2014, 2015 годов. Оставайтесь с нами, качайте любимые фильмы, игры, сериалы, книги и музыку.