img image001 image001 image001 image001 image001 image001 image001 image001 image001 image001 image001 image001 image001 image001 image001

Planets Sun Sun Sun
Статистика раздачи
Автор: Снежана | Размер: 18.45 ГБ | Добавлен: 25 июл 2013
Раздают: 2    Качают: 6
Скачать торрент
Скачать торрент
Описание торрента

СообщениеДобавлено: 25 июл 2013 










Демоны Да Винчи / Da Vinci's Demons




Год выпуска: 2013
Выпущено: США, BBC Worldwide Productions
Жанр: Драма, приключения
Продолжительность: 00:59:00
Сезон: 1
Серия: 1- 8
Количество серий в сезоне: 8
Озвучка:Профессиональная многоголосая закадровая(AlexFilm)Евгения Тихонова, Михаил Суслов, Владимир Курдов, Константин Погодаев, Александр Дасевич
Субтитры: Русские, английские




Режиссер: Майкл Дж. Бассетт, Дэвид С. Гойер, Джэми Пэйн




В ролях: Том Райли, Лаура Хэддок, Йен Пири, Эрос Влахос, Грегг Чиллин, Лара Пулвер, Том Бейтман, Гера Хилмарсдоттир, Эллиот Леви, Росс О’Хеннесси




В мире, где мысль и вера находятся под контролем, один человек борется за то, чтобы сделать знания доступными для всех. Не рассказанная история трагичной жизни Леонардо Да Винчи раскрывает портрет молодого человека, которого мучает дар гения. Он — еретик, жаждущий раскрыть ложь религии. Бунтарь, стремящийся низвергнуть элитарное общество. Незаконнорожденный сын, требующий от своего отца признания его прав. Он оказывается посреди разразившегося урагана страстей, который спал веками. Внутри конфликта между правдой и ложью, религией и интеллектом, прошлым и будущим. Его стремления используются против него противоборствующими силами того времени, вовлекая его в соблазнительную игру, в которой те, кто презирает его ум, нуждаются в нём больше всего. Леонардо должен вступить в конфронтацию с теми, кто использует историю, чтобы скрыть истину. Вооружённый лишь собственным гением Да Винчи в одиночку противостоит тьме как внутри, так и снаружи. Перед лицом неопределённости будущего его поход за знаниями едва не становится для него погибелью, когда он переходит за грань своего здравомыслия. Да Винчи, словно в омут с головой, уходит в собственные гениальные идеи, воплотив которые, становится необоримой силой, вытаскивающей из темноты и поворачивающей к свету целую эпоху. Его история становится зеркалом для нашего мира, зовущее всех нас на бой за Свободное Будущее.




Качество : HDTVRip-AVC 1080p
Формат: MPEG-4
Видео кодек: H264
Видео: 5218Кбит/сек,1920х1080(16.9),в 25.000кадр/сек,AVC(Baseline@L5.0)(1Ref Frames)
Аудио кодек: AAC
Аудио Russian Dolby Digital 5.1:456Кбит/сек,44.1КГц,6каналов,AAC,(Version4)(LC)





Звуковая дорожка сделана путем наложения чистого голоса озвучивателей на центральный канал оригинальной дорожки. Качество идентично звуковой дорожке.






b01. Повешенный / The Hanged Man
02. Змей / The Serpent
03. Узник /The Prisoner
04. Маг / The Magician
05. Суд / The Tower
06. Дьявол / The Devil
07. Верховный жрец / The Hierophant
08. Любовники / The Lovers







Общее
Полное имя : D:Новая папкаDa_Vinci's_Demons_2013_S01_RUS[AlexFilm]_DD5.1_x264_Nikolai.Baranov_HDTVRip-AVC_(1080p)Da_Vinci's_Demons_2013_S01E01_RUS[AlexFilm]_DD5.1_x264_Nikolai.Baranov_HDTVRip-AVC_(1080p).mp4
Формат : MPEG-4
Профиль формата : Base Media
Идентификатор кодека : isom
Размер файла : 2,33 Гбайт
Продолжительность : 58 м.
Режим общего битрейта : Переменный
Общий поток : 5679 Кбит/сек
Дата кодирования : UTC 2013-04-28 11:51:16
Дата пометки : UTC 2013-04-28 11:51:16
Программа кодирования : Lavf51.12.1
Видео
Идентификатор : 1
Формат : AVC
Формат/Информация : Advanced Video Codec
Профиль формата : Baseline@L5.0
Параметр CABAC формата : Нет
Параметр ReFrames формата : 1 кадр
Параметр GOP формата : M=1, N=12
Идентификатор кодека : avc1
Идентификатор кодека/Информация : Advanced Video Coding
Продолжительность : 58 м.
Вид битрейта : Переменный
Битрейт : 5219 Кбит/сек
Максимальный битрейт : 7500 Кбит/сек
Ширина : 1920 пикселей
Высота : 1080 пикселей
Соотношение сторон : 16:9
Режим частоты кадров : Постоянный
Частота кадров : 25,000 кадров/сек
Частота кадров в оригинале : 24,000 кадра/сек
Цветовое пространство : YUV
Субдискретизация насыщенности : 4:2:0
Битовая глубина : 8 бит
Тип развёртки : Прогрессивная
Бит/(Пиксели*Кадры) : 0.101
Размер потока : 2,15 Гбайт (92%)
Дата кодирования : UTC 2013-04-28 11:51:16
Дата пометки : UTC 2013-04-28 11:51:16
Аудио
Идентификатор : 2
Формат : AAC
Формат/Информация : Advanced Audio Codec
Профиль формата : LC
Идентификатор кодека : 40
Продолжительность : 58 м.
Вид битрейта : Переменный
Битрейт : 456 Кбит/сек
Каналы : 6 каналов
Расположение каналов : Front: L C R, Side: L R, LFE
Частота : 44,1 КГц
Метод сжатия : С потерями
Размер потока : 192 Мбайт (8%)
Дата кодирования : UTC 2013-04-28 11:51:16
Дата пометки : UTC 2013-04-28 11:51:16


















1. Открыть торрент
2. Снять галки с тех файлов торрента, которые мы не хотим закачивать. Оставляем только на нужных нам файлах (файле).
3. Нажать О.К.
[color=brown]В клиенте utorrent
Инструкция
1) Открыть торрент

2) Снять галки с тех файлов торрента, которые мы не хотим закачивать:
* либо вручную, снимая с каждого файла галку( скрин №1)
* либо, нажав кнопку "Снять метки (Select None)", сняв сразу со всех файлов(скрин №2)
№1

№2

Оставляем только на нужных нам файлах (файле).

3)Нажать О.К






Внимание!!! 12.06. 2013. РАЗДАЧА ОБНОВЛЕНА.финал сезона.ОБНОВИТЕ ТОРЕНТ ФАЙЛ.ПРИЯТНОГО ПРОСМОТРА.




Релиз от: Nikolai.Baranov





















   Похожие торренты   Торрент   Размер 
В этой теме нет новых непрочитанных сообщений. Демоны Да Винчи / Da Vinci's Demons [01-02x01-09 из 18] (2013-2014) HDTVRip-AVC 1080p l AlexFilm

10 | 30

25.68 ГБ

В этой теме нет новых непрочитанных сообщений. Демоны Да Винчи / Da Vinci's Demons [01-02x01-11 из 18] (2013-2014) HDTVRip-AVC 1080p l AlexFilm

14 | 45

31.39 ГБ

В этой теме нет новых непрочитанных сообщений. Демоны Да Винчи / Da Vinci`s Demons [S01] (2013) HDTVRip-AVC | AlexFilm

9 | 4

7.06 ГБ

В этой теме нет новых непрочитанных сообщений. Демоны Да Винчи / Da Vinci`s Demons [S01] (2013) HDTVRip | AlexFilm

103 | 16

5.2 ГБ

В этой теме нет новых непрочитанных сообщений. Демоны Да Винчи / Da Vinci`s Demons [S01] (2013) HDTVRip 720p | AlexFilm

41 | 19

15.77 ГБ

В этой теме нет новых непрочитанных сообщений. Демоны Да Винчи / Da Vinci's Demons [s01] (2013) HDTVRip | AlexFilm, Jaskier

32 | 13

4.87 ГБ

В этой теме нет новых непрочитанных сообщений. Демоны Да Винчи / Da Vinci's Demons [s01] (2013) HDTVRip от Scarabey | AlexFilm

44 | 10

5.8 ГБ




Вы не можете начинать темы
Вы не можете отвечать на сообщения
Вы не можете редактировать свои сообщения
Вы не можете удалять свои сообщения
Вы не можете добавлять вложения

Перейти:  
Для Мосгорсуда, Роскомнадзора и рекламодателей: mosgorsud-torrent[собачка]yandex.ru
 Вход
ppkBB3cker v.2 © 2008-2014 @ PPK
[ Time : 0.030s | 14 Queries | GZIP : On ]

Торрент трекер RUTOR.IN, Не можете зайти на rutor.org? Какой новый адрес рутор? Какое зеркало рутор? Не работает rutor.org и зеркала? Тогда наш торрент специально для вас. Rutor.in неофициальное зеркало rutor. В случае если у Вас заблокирован rutor или вдруг Вы не можете на него зайти, то Вы без труда сможете скачать бесплатно и без рекламы последние новинки кино, игр, сериалов и прочего у нас, на Rutor.in. Не нужно использовать прокси, чтобы зайти на рутор, достаточно воспользоваться нашим ресурсом. Все новые фильмы, игры, сериалы, книги и музыка за 2013 и 2014 годы через торрент бесплатно. Скачивайте фильмы в хорошем качестве, игры для пк, xbox, playstation без регистрации. У нас вы найдете новые Зарубежные сериалы и Русские сериалы 2013, 2014, 2015 годов. Оставайтесь с нами, качайте любимые фильмы, игры, сериалы, книги и музыку.