img image001 image001 image001 image001 image001 image001 image001 image001 image001 image001 image001 image001 image001 image001 image001

Planets Sun Sun Sun
Статистика раздачи
Автор: Снежана | Размер: 22.03 ГБ | Добавлен: 25 июл 2013
Раздают: 0    Качают: 2
Скачать торрент
Скачать торрент
Описание торрента

СообщениеДобавлено: 25 июл 2013 

#77

Название: Последователи
Оригинальное название: The Following
Год выпуска: 2013
Жанр: триллер, драма, криминал
Режиссер: Маркос Сига (Marcos Siega), Джошуа Батлер (Joshua Butler)
В ролях: Кевин Бейкон, Джеймс Пьюрфой, Шон Эшмор, Кайл Кэтлетт, Натали Зиа, Энни Пэррис, Нико Торторелла, Грег Пол, Ли Джан Ли и другие

Описание: Когда печально известный серийный убийца Джо Кэрролл сбегает из ряда смертников, ФБР вызывает бывшего агента Райана Харди как консультанта. Харди уже один раз словил Кэрролла — в 2003 году, после того, как Кэролл убил 14 студенток. Харди знает о Кэрролле все. Но сам Харди уже не тот, что прежде. После изнурительной погони за убийцей в прошлый раз Харди получил физические и душевные раны, и давно не работал. Это новое расследование — его шанс на искупление. Харди приходится работать в команде с другими фбровцами, в частности с Майком Вестоном и Деброй Паркер. И хотя команда сначала воспринимает Харди как обузу, он быстро доказывает свою полезность, выясняя, что у Кэрролла появилась целая сеть последователей. Расследование приводит Харди к Клэр Мэттьюз, бывшей жене Кэрролла и матери его сына Джоуи. Харди надеется, что Клэр поможет ему, как помогала в прошлом расследовании. А тем временем последователи Кэрролла похищают девушку, которую он не успел убить 10 лет назад.



Страна: США
Продолжительность: 15 x ~ 00:45:00
Перевод: Профессиональный (многоголосый, закадровый) - LostFilm
Субтитры: Нет

Качество: WEB-DL 720p, HDTV 720p
Формат: MKV
Видео: XviD, 4041 Кбит/с, 1280x720
Аудио rus: AC3, 2 ch, 384 Кбит/с
Аудио eng: AC3, 2 ch, 384 Кбит/с



01. Пилот
02. Глава вторая
03. Поэтическое Пламя / The Poet's Fire
04. Безумная любовь / Mad Love
05. Осада / The Siege
06. Провал / The Fa
07. Отпусти меня / Let me go
08. Добро пожаловать домой / Welcome Home
09. Сердечные раны / Love Hurts
10. Вина / Guilt
11. Плети и сожаления / Whips & Regret
12. Проклятье / The Curse
13. Хэйвенпорт
14. Конец близок
15. Последняя глава
Общее
Уникальный идентификатор : 216381630594462124895029008660941567751 (0xA2C9960FBE3E2263B7098D2D9CF0F707)
Полное имя : D:The Following S01 LostFilm 720pThe.Following.S01E12.720p.rus.LostFilm.TV.mkv
Формат : Matroska
Размер файла : 1,49 Гбайт
Продолжительность : 44 м.
Общий поток : 4811 Кбит/сек
Дата кодирования : UTC 2013-04-10 15:05:50
Программа кодирования : mkvmerge v4.2.0 ('No Talking') сборка от Jul 28 2010 18:38:23
Библиотека кодирования : libebml v1.0.0 + libmatroska v1.0.0

Видео
Идентификатор : 1
Формат : AVC
Формат/Информация : Advanced Video Codec
Профиль формата : High@L3.1
Параметр CABAC формата : Да
Параметр ReFrames формата : 4 кадра
Параметры GOP формата : M=3, N=6
Идентификатор кодека : V_MPEG4/ISO/AVC
Продолжительность : 44 м.
Битрейт : 4041 Кбит/сек
Ширина : 1280 пикс.
Высота : 720 пикс.
Соотношение сторон : 16:9
Частота кадров : 23,976 кадр/сек
Цветовое пространство : YUV
Подвыборка цветности : 4:2:0
Битовая глубина : 8 бит
Тип развёртки : Прогрессивная
Бит/(Пиксели*Кадры) : 0.183
Размер потока : 1,22 Гбайт (82%)
Библиотека кодирования : x264 core 112 r1834 a51816a
Настройки программы : cabac=1 / ref=1 / deblock=1:0:0 / analyse=0x3:0x113 / me=hex / subme=7 / psy=1 / psy_rd=1.00:0.00 / mixed_ref=0 / me_range=16 / chroma_me=1 / trellis=1 / 8x8dct=1 / cqm=0 / deadzone=21,11 / fast_pskip=1 / chroma_qp_offset=-2 / threads=6 / sliced_threads=0 / nr=0 / decimate=1 / interlaced=0 / constrained_intra=0 / bframes=3 / b_pyramid=2 / b_adapt=1 / b_bias=0 / direct=1 / weightb=1 / open_gop=0 / weightp=2 / keyint=250 / keyint_min=25 / scenecut=40 / intra_refresh=0 / rc_lookahead=40 / rc=2pass / mbtree=1 / bitrate=4041 / ratetol=1.0 / qcomp=0.60 / qpmin=0 / qpmax=51 / qpstep=4 / cplxblur=20.0 / qblur=0.5 / ip_ratio=1.40 / aq=1:1.00

Аудио #1
Идентификатор : 2
Формат : AC-3
Формат/Информация : Audio Coding 3
Расширение режима : CM (complete main)
Идентификатор кодека : A_AC3
Продолжительность : 44 м.
Вид битрейта : Постоянный
Битрейт : 384 Кбит/сек
Каналы : 2 канала
Расположение каналов : Front: L R
Частота : 48,0 КГц
Битовая глубина : 16 бит
Метод сжатия : С потерями
Размер потока : 121 Мбайт (8%)

Аудио #2
Идентификатор : 3
Формат : AC-3
Формат/Информация : Audio Coding 3
Расширение режима : CM (complete main)
Идентификатор кодека : A_AC3
Продолжительность : 44 м.
Вид битрейта : Постоянный
Битрейт : 384 Кбит/сек
Каналы : 2 канала
Расположение каналов : Front: L R
Частота : 48,0 КГц
Битовая глубина : 16 бит
Метод сжатия : С потерями
Размер потока : 121 Мбайт (8%)



Релиз от:



   Похожие торренты   Торрент   Размер 
В этой теме нет новых непрочитанных сообщений. Последователи / The Following [S02] (2014) WEB-DLRip 720p | LostFilm

91 | 155

21.99 ГБ

В этой теме нет новых непрочитанных сообщений. Последователи / The Following [03x01 из 11] (2015) WEB-DL 720p | LostFilm

99 | 3

1.46 ГБ

В этой теме нет новых непрочитанных сообщений. Последователи / The Following [02x01-13 из 15] (2014) WEB-DLRip 720p | LostFilm

24 | 264

19.01 ГБ

В этой теме нет новых непрочитанных сообщений. Последователи / The Following [02x01-11 из 15] (2014) WEB-DLRip 720p | LostFilm

19 | 241

16.04 ГБ

В этой теме нет новых непрочитанных сообщений. Последователи / The Following [02x01-05] (2014) WEB-DLRip 720p | LostFilm

59 | 146

7.28 ГБ

В этой теме нет новых непрочитанных сообщений. Последователи / The Following [02x01-09 из 15] (2014) WEB-DLRip 720p | LostFilm

38 | 95

13.2 ГБ

В этой теме нет новых непрочитанных сообщений. Последователи / The Following [02x01-04] (2014) WEB-DLRip 720p | LostFilm

175 | 239

5.85 ГБ




Вы не можете начинать темы
Вы не можете отвечать на сообщения
Вы не можете редактировать свои сообщения
Вы не можете удалять свои сообщения
Вы не можете добавлять вложения

Перейти:  
Для Мосгорсуда, Роскомнадзора и рекламодателей: mosgorsud-torrent[собачка]yandex.ru
 Вход
ppkBB3cker v.2 © 2008-2014 @ PPK
[ Time : 3.462s | 15 Queries | GZIP : Off ]

cron