img image001 image001 image001 image001 image001 image001 image001 image001 image001 image001 image001 image001 image001 image001 image001

Planets Sun Sun Sun
Статистика раздачи
Автор: Снежана | Размер: 2.07 ГБ | Добавлен: 26 июл 2013
Раздают: 2010    Качают: 444
Скачать торрент
Скачать торрент
Описание торрента

СообщениеДобавлено: 26 июл 2013 

#77

Информация о фильме
Название: Игра престолов
Оригинальное название: Game of Thrones
Год выхода: 2013
Жанр: фэнтези, драма, приключения
Режиссер: Алан Тейлор, Брайан Кирк, Даниэль Минахан
В ролях: Шон Бин, Лина Хиди, Айэйн Глен, Питер Динклэйдж, Эмилия Кларк, Мишель Фэйрли, Эйден Гиллен, Кит Харингтон, Марк Эдди, Элфи Оуэн-Аллен, Мэйси Уильямc

О фильме:
Люди, отказавшиеся жить по законам Семи Королевств, получили название одичалых и были изгнаны за Стену, на страже которой стоит Ночной Дозор. Но орден был учрежден, чтобы защищать мир людей от совсем другой силы — Белых Ходоков, ныне пробудившихся и угрожающих всему живому. Король одичалых Манс готов на все, чтобы убедить Дозор пропустить свой народ за Стену.
Однако южные лорды и короли как и прежде глухи к сообщениям о скорой зиме, о пробуждении Иных и о вторжении одичалых. Король Станнис Баратеон скрылся после поражения на Черноводной в своем замке, король Бейлон Грейджой разоряет побережье, король Робб теряет союзников, а король Джоффри, напротив, имея в союзниках два самых влиятельных дома Королевств, надеется вскоре разбить всех своих врагов. Третий сезон Игры престолов поставлен по первой половине третьего тома Песни Льда и Пламени (Буря мечей).
Страна: США
Студия: HBO
Продолжительность серии: ~55 минут
Перевод: Профессиональный (многоголосый, закадровый) LostFilm



Файл
Контейнер: MP4
Кодек: H264
Качество: HDTVRip | КПК
Видео: AVC at 400 Кбит/сек, 640 x 352 (1.778) at 23.976 fps
Звук: AAC at 128 Кбит/сек, 2 канала, 48,0 КГц
Субтитры: вшитые английские (Валерийская речь)

Сэмпл

Код:
 Общее
Полное имя                               : Игра престолов Сезон 3 Серия 01.mp4
Формат                                   : MPEG-4
Профиль формата                          : Base Media
Идентификатор кодека                     : isom
Размер файла                             : 211 Мбайт
Продолжительность                        : 57 м.
Общий поток                              : 514 Кбит/сек
Исполнитель                              : RG BrodimCom
Дата кодирования                         : UTC 2013-04-03 17:35:58
Дата пометки                             : UTC 2013-04-03 17:35:58
Программа кодирования                    : XviD4PSP 6.0 / 54.29.105

Видео
Идентификатор                            : 1
Формат                                   : AVC
Формат/Информация                        : Advanced Video Codec
Профиль формата                          : Main@L4.1
Параметр CABAC формата                   : Да
Параметр ReFrames формата                : 3 кадра
Идентификатор кодека                     : avc1
Идентификатор кодека/Информация          : Advanced Video Coding
Продолжительность                        : 57 м.
Битрейт                                  : 400 Кбит/сек
Ширина                                   : 640 пикселей
Высота                                   : 352 пикселя
Соотношение сторон                       : 16:9
Режим частоты кадров                     : Постоянный
Частота кадров                           : 23,976 кадра/сек
Цветовое пространство                    : YUV
Субдискретизация насыщенности            : 4:2:0
Битовая глубина                          : 8 бит
Тип развёртки                            : Прогрессивная
Бит/(Пиксели*Кадры)                      : 0.074
Размер потока                            : 156 Мбайт (74%)
Библиотека кодирования                   : x264 core 128 r2216M 198a7ea
Настройки программы                      : cabac=1 / ref=3 / deblock=1:0:0 / analyse=0x1:0x131 / me=dia / subme=5 / psy=1 / psy_rd=1.00:0.20 / mixed_ref=1 / me_range=16 / chroma_me=1 / trellis=0 / 8x8dct=0 / cqm=0 / deadzone=21,11 / fast_pskip=1 / chroma_qp_offset=0 / threads=8 / lookahead_threads=1 / sliced_threads=0 / nr=0 / decimate=1 / interlaced=0 / bluray_compat=0 / constrained_intra=0 / bframes=3 / b_pyramid=0 / b_adapt=0 / b_bias=0 / direct=3 / weightb=1 / open_gop=0 / weightp=0 / keyint=230 / keyint_min=23 / scenecut=40 / intra_refresh=0 / rc_lookahead=40 / rc=cbr / mbtree=1 / bitrate=400 / ratetol=1.0 / qcomp=0.60 / qpmin=10 / qpmax=51 / qpstep=4 / vbv_maxrate=400 / vbv_bufsize=1835 / nal_hrd=none / ip_ratio=1.40 / aq=1:1.00
Дата кодирования                         : UTC 2013-04-03 17:35:58
Дата пометки                             : UTC 2013-04-03 17:35:58

Аудио
Идентификатор                            : 2
Формат                                   : AAC
Формат/Информация                        : Advanced Audio Codec
Профиль формата                          : LC
Идентификатор кодека                     : 40
Продолжительность                        : 57 м.
Вид битрейта                             : Постоянный
Битрейт                                  : 128 Кбит/сек
Каналы                                   : 2 канала
Расположение каналов                     : Front: L R
Частота                                  : 48,0 КГц
Метод сжатия                             : С потерями
Задержка видео                           : 42 мс.
Размер потока                            : 52,5 Мбайт (25%)
Дата кодирования                         : UTC 2013-04-03 17:35:58
Дата пометки                             : UTC 2013-04-03 17:35:58
Валар Дохаэрис (Valar Dohaeris)
Чёрные крылья, чёрные вести (Dark Wings, Dark Words)
Стезя страданий (Walk of Punishment)
Теперь его дозор окончен (And Now His Watch Is Ended)
Поцелованная огнём (Kissed by Fire)
Подъём (The Climb)
Медведь и прекрасная дева (The Bear and the Maiden Fair)
Младшие Сыновья (Second Sons)
Рейны из Кастамере (The Rains of Castamere)
[*]Миса (Mhysa)



   Похожие торренты   Торрент   Размер 
В этой теме нет новых непрочитанных сообщений. Игра престолов / Game of Thrones [S03] (2013) HDTVRip от Scarabey | LostFilm

3739 | 1057

7.31 ГБ

В этой теме нет новых непрочитанных сообщений. Игра престолов / Game of Thrones [S01-03] (2011-2013) HDTVRip-AVC | LostFilm

525 | 154

28.2 ГБ

В этой теме нет новых непрочитанных сообщений. Игра престолов / Game of Thrones [S03] (2013) HDTVRip от Scarabey | LostFilm

1352 | 143

3.87 ГБ

В этой теме нет новых непрочитанных сообщений. Игра престолов / Game of Thrones [S01-03] (2011-2013) HDTVRip | LostFilm

1750 | 1217

18.72 ГБ

В этой теме нет новых непрочитанных сообщений. Игра престолов / Game of Thrones [S03] (2013) HDTVRip 1080p | LostFilm

1004 | 466

50.19 ГБ

В этой теме нет новых непрочитанных сообщений. Игра престолов / Game of Thrones [S01-03] (2011-2013) HDTVRip 720p | LostFilm

526 | 545

61.25 ГБ

В этой теме нет новых непрочитанных сообщений. Игра престолов / Game of Thrones [S01] (2011) HDTVRip | LostFilm (DD 5.1)

141 | 68

10.42 ГБ




Вы не можете начинать темы
Вы не можете отвечать на сообщения
Вы не можете редактировать свои сообщения
Вы не можете удалять свои сообщения
Вы не можете добавлять вложения

Перейти:  
Для Мосгорсуда, Роскомнадзора и рекламодателей: mosgorsud-torrent[собачка]yandex.ru
 Вход
ppkBB3cker v.2 © 2008-2014 @ PPK
[ Time : 0.054s | 15 Queries | GZIP : Off ]

Торрент трекер RUTOR.IN, Не можете зайти на rutor.org? Какой новый адрес рутор? Какое зеркало рутор? Не работает rutor.org и зеркала? Тогда наш торрент специально для вас. Rutor.in неофициальное зеркало rutor. В случае если у Вас заблокирован rutor или вдруг Вы не можете на него зайти, то Вы без труда сможете скачать бесплатно и без рекламы последние новинки кино, игр, сериалов и прочего у нас, на Rutor.in. Не нужно использовать прокси, чтобы зайти на рутор, достаточно воспользоваться нашим ресурсом. Все новые фильмы, игры, сериалы, книги и музыка за 2013 и 2014 годы через торрент бесплатно. Скачивайте фильмы в хорошем качестве, игры для пк, xbox, playstation без регистрации. У нас вы найдете новые Зарубежные сериалы и Русские сериалы 2013, 2014, 2015 годов. Оставайтесь с нами, качайте любимые фильмы, игры, сериалы, книги и музыку.