img image001 image001 image001 image001 image001 image001 image001 image001 image001 image001 image001 image001 image001 image001 image001

Planets Sun Sun Sun
Статистика раздачи
Автор: Снежана | Размер: 3.17 ГБ | Добавлен: 25 июл 2013
Раздают: 3    Качают: 5
Скачать торрент
Скачать торрент
Описание торрента

СообщениеДобавлено: 25 июл 2013 

Правила совместной жизни / Rules of Engagement
Серии 1-13 из 13

Год выпуска: 2013
Страна: США
Жанр: Ситком
Продолжительность: ~21 мин.
Озвучивание: Любительский (двухголосый закадровый)
BraveSound
Субтитры: отсутствуют
Режиссёр: Тед Уасс, Том Херц
В ролях: Меган Прайс, Патрик Ворбёртон, Оливер Хадсон, Бьянка Кэйлич, Дэвид Спэйд, Адхир Кальян
Описание: «Правила совместной жизни» - это не документальный сериал, который раскрывает основные теоретические правила, которые нужно соблюдать при создании семьи, а умопомрачительная комедия, рассказывающая о различных фазах отношений, которые складываются при совместной жизни мужчины и женщины.
Главные герои сериала - обручённая пара Дженнифер и Адам, одинокий убежденный холостяк Рассел, а также давно женатая и вполне сложившаяся семья Джеф и Одри. Они живут в одном доме, и даже более того, на одной лестничной клетке. Общаясь между собой, они делятся впечатлениями, которые остаются от их совместной жизни со своими половинками. На их наглядном примере можно увидеть, что отношения между влюбленными часто походят на безумные гонки с препятствиями.
Каждый человек наверняка способен описать, что означает состоять в отношениях, вот только чтобы по-настоящему ощутить и понять, каково это, необходимо самому принять непосредственное участие в этих порой забавных, а порой и трагичных гонках.

Озвучивание: при поддержке SEASONVAR
Работа с видео joybang
Перевод: topsi, obezyna, deniro, gale_o, Vo1, Marina_Wolf и др.


Качество: WEB-DLRip
Формат: AVI
Видео кодек: XviD
Аудио кодек: MP3
Видео: 720x400 (16:9); 1 332 Kbps; 23,976 fps; 0.197 bpp
Аудио РУС: 48 kHz, MP3, 2 ch, ~128 Kbps.00 kbps avg
Аудио ENG: 48 kHz, MP3, 2 ch, ~128 Kbps.00 kbps avg





Format : AVI
Format/Info : Audio Video Interleave
File size : 250 MiB
Duration : 21mn 23s
Overall bit rate : 1 632 Kbps
Writing application : VirtualDubMod 1.5.10.2 (build 2540/release)
Writing library : VirtualDubMod build 2540/release
Video
ID : 0
Format : MPEG-4 Visual
Format profile : Advanced Simple@L5
Format settings, BVOP : 1
Format settings, QPel : No
Format settings, GMC : No warppoints
Format settings, Matrix : Default (MPEG)
Codec ID : XVID
Codec ID/Hint : XviD
Duration : 21mn 23s
Bit rate : 1 362 Kbps
Width : 720 pixels
Height : 400 pixels
Display aspect ratio : 16:9
Frame rate : 23.976 fps
Color space : YUV
Chroma subsampling : 4:2:0
Bit depth : 8 bits
Scan type : Progressive
Compression mode : Lossy
Bits/(Pixel*Frame) : 0.197
Stream size : 208 MiB (83%)
Writing library : XviD 65
Audio #1
ID : 1
Format : MPEG Audio
Format version : Version 1
Format profile : Layer 3
Mode : Joint stereo
Mode extension : MS Stereo
Codec ID : 55
Codec ID/Hint : MP3
Duration : 21mn 23s
Bit rate mode : Constant
Bit rate : 128 Kbps
Channel(s) : 2 channels
Sampling rate : 48.0 KHz
Compression mode : Lossy
Stream size : 19.6 MiB (8%)
Alignment : Aligned on interleaves
Interleave, duration : 42 ms (1.00 video frame)
Interleave, preload duration : 504 ms
Audio #2
ID : 2
Format : MPEG Audio
Format version : Version 1
Format profile : Layer 3
Codec ID : 55
Codec ID/Hint : MP3
Duration : 21mn 23s
Bit rate mode : Constant
Bit rate : 128 Kbps
Channel(s) : 2 channels
Sampling rate : 48.0 KHz
Compression mode : Lossy
Stream size : 19.6 MiB (8%)
Alignment : Aligned on interleaves
Interleave, duration : 42 ms (1.00 video frame)
Interleave, preload duration : 504 ms
Writing library : LAME3.99r
Encoding settings : -m s -V 4 -q 2 -lowpass 17 -b 128



   Похожие торренты   Торрент   Размер 
В этой теме нет новых непрочитанных сообщений. Правила совместной жизни / Rules of Engagement [S01-07] (2007-2013) WEB-DLRip | P, L2

8 | 15

28.47 ГБ

В этой теме нет новых непрочитанных сообщений. Правила совместной жизни / Rules of Engagement [S04] (2010) WEB-DLRip | SET

2 | 2

3.18 ГБ

В этой теме нет новых непрочитанных сообщений. Правила совместной жизни / Rules of Engagement [06x01-15] (2011) WEB-DLRip | SET

5 | 3

3.67 ГБ

В этой теме нет новых непрочитанных сообщений. Правила совместной жизни / Rules of Engagement [S04] (2010) WEB-DLRip | BaibaKo

0 | 2

3.44 ГБ

В этой теме нет новых непрочитанных сообщений. Правила совместной жизни / Rules of Engagement [S05] (2010-2011) WEB-DLRip | SET

0 | 4

5.87 ГБ

В этой теме нет новых непрочитанных сообщений. Правила совместной жизни / Rules of Engagement [06х01] (2012) WEB-DLRip | BaibaKo

1 | 2

310.57 МБ

В этой теме нет новых непрочитанных сообщений. Правила совместной жизни / Rules of Engagement [S07х01-13] (2013) WEB-DL 1080p | L2

3 | 2

11.11 ГБ




Вы не можете начинать темы
Вы не можете отвечать на сообщения
Вы не можете редактировать свои сообщения
Вы не можете удалять свои сообщения
Вы не можете добавлять вложения

Перейти:  
Для Мосгорсуда, Роскомнадзора и рекламодателей: mosgorsud-torrent[собачка]yandex.ru
 Вход
ppkBB3cker v.2 © 2008-2014 @ PPK
[ Time : 0.060s | 14 Queries | GZIP : On ]

Торрент трекер RUTOR.IN, Не можете зайти на rutor.org? Какой новый адрес рутор? Какое зеркало рутор? Не работает rutor.org и зеркала? Тогда наш торрент специально для вас. Rutor.in неофициальное зеркало rutor. В случае если у Вас заблокирован rutor или вдруг Вы не можете на него зайти, то Вы без труда сможете скачать бесплатно и без рекламы последние новинки кино, игр, сериалов и прочего у нас, на Rutor.in. Не нужно использовать прокси, чтобы зайти на рутор, достаточно воспользоваться нашим ресурсом. Все новые фильмы, игры, сериалы, книги и музыка за 2013 и 2014 годы через торрент бесплатно. Скачивайте фильмы в хорошем качестве, игры для пк, xbox, playstation без регистрации. У нас вы найдете новые Зарубежные сериалы и Русские сериалы 2013, 2014, 2015 годов. Оставайтесь с нами, качайте любимые фильмы, игры, сериалы, книги и музыку.