img image001 image001 image001 image001 image001 image001 image001 image001 image001 image001 image001 image001 image001 image001 image001

Planets Sun Sun Sun
Статистика раздачи
Автор: Снежана | Размер: 2.01 ГБ | Добавлен: 25 июл 2013
Раздают: 0    Качают: 2
Скачать торрент
Скачать торрент
Описание торрента

СообщениеДобавлено: 25 июл 2013 

Настоящая кровь / True Blood
Год выпуска: 2013
Страна: США
Жанр: фэнтези, триллер, драма
Продолжительность: 00:52:05

Перевод: Любительский (одноголосый закадровый) Kerob
Режиссёр: Майкл Леманн, Скотт Уинант, Даниэль Минахан
В ролях: Анна Пакуин, Стивен Мойер, Сэм Траммелл, Райан Квантен, Рутина Уэсли, Кристофер Бауэр, Нелсан Эллис, Джим Пэррак, Кэрри Престон, Александр Скарсгард и др.

Описание:
События разворачиваются в небольшом городке в пригороде Нового Орлеана. С тех пор, как японцы изобрели синтетическую кровь «True Blood», у вампиров отпала необходимость убивать простых смертных. Два года назад вампиры покинули свои гробы и официально заявили о своих правах. Но как водится, не все люди оказались готовы к этому, и не все вампиры были рады отказаться от привычного лакомства. Сьюки Стэкхауз — обычная официантка из пригородного кафе, наделенная способностью читать мысли окружающих, знакомится с «хорошим» вампиром Биллом Комтоном. И сразу приобретает много врагов из «плохих парней».

Ссылка на предыдущие и альтернативные раздачи

WEB-DL: NTb
Озвучка: Kerob
Синхронизация звука: GRinGrey ?
Рус. субтитры: Notabenoid
Синхронизация Рус. субтитров: Black_Scorpion_666
Анг. субтитры: addic7ed

Качество: WEB-DL 1080p Сэмпл
Контейнер: MKV
Видео: AVC (H.264) 1920x1080p (16:9) | 23.976 fps | ~4 833 kbps avg | 0.18 bit/pixel
Аудио: AC3 | 48KHz | 2.0 (Front: L R) | 192 kbps
Аудио 2: AC3 | 48 kHz | 5.1 (Front: L C R, Side: L R, LFE) | 384.00 kbps
Субтитры: softsub (SRT) Русские, Английские

1 серия - Кто ты на самом деле? | Who Are You, Really?

General
Уникальный идентификатор : 252674619880090330439516526228314727936 (0xBE175C95D6F88B2E9528C768149B2600)
Полное имя : H:True BloodTrue.Blood.S06.1080p.WEB-DL.Rus.Eng-BS666True.Blood.S06E01.1080p.WEB-DL.Rus.Eng-BS666.mkv
Формат : Matroska
Версия формата : Version 4 / Version 2
Размер файла : 2.01 GiB
Продолжительность : 52mn 5s
Общий поток : 5 519 Kbps
Дата кодирования : UTC 2013-06-18 08:42:27
Программа кодирования : mkvmerge v6.2.0 ('Promised Land') built on Apr 28 2013 12:22:01
Библиотека кодирования : libebml v1.3.0 + libmatroska v1.4.0

Video
Идентификатор : 1
Формат : AVC
Формат/Информация : Advanced Video Codec
Профиль формата : High@L4.0
Параметр CABAC формата : Yes
Параметр ReFrames формата : 4 frames
Идентификатор кодека : V_MPEG4/ISO/AVC
Продолжительность : 52mn 5s
Битрейт : 4 833 Kbps
Ширина : 1 920 pixels
Высота : 1 080 pixels
Соотношение сторон : 16:9
Режим частоты кадров : Constant
Частота кадров : 23.976 fps
Цветовое пространство : YUV
Субдискретизация насыщенности : 4:2:0
Битовая глубина : 8 bits
Тип развёртки : Progressive
Бит/(Пиксели*Кадры) : 0.097
Размер потока : 1.76 GiB (88%)
Язык : English
Default : Yes
Forced : No
Color primaries : BT.709
Transfer characteristics : BT.709
Matrix coefficients : BT.709

Audio #1
Идентификатор : 2
Формат : AC-3
Формат/Информация : Audio Coding 3
Расширение режима : CM (complete main)
Параметр Endianness формата : Big
Идентификатор кодека : A_AC3
Продолжительность : 52mn 5s
Вид битрейта : Constant
Битрейт : 192 Kbps
Каналы : 2 channels
Расположение каналов : Front: L R
Частота : 48.0 KHz
Битовая глубина : 16 bits
Метод сжатия : Lossy
Размер потока : 71.5 MiB (3%)
Язык : Russian
Default : No
Forced : No

Audio #2
Идентификатор : 3
Формат : AC-3
Формат/Информация : Audio Coding 3
Расширение режима : CM (complete main)
Параметр Endianness формата : Big
Идентификатор кодека : A_AC3
Продолжительность : 52mn 5s
Вид битрейта : Constant
Битрейт : 384 Kbps
Каналы : 6 channels
Расположение каналов : Front: L C R, Side: L R, LFE
Частота : 48.0 KHz
Битовая глубина : 16 bits
Метод сжатия : Lossy
Размер потока : 143 MiB (7%)
Язык : English
Default : No
Forced : No

Text #1
Идентификатор : 4
Формат : UTF-8
Идентификатор кодека : S_TEXT/UTF8
Идентификатор кодека/Информация : UTF-8 Plain Text
Язык : Russian
Default : No
Forced : No

Text #2
Идентификатор : 5
Формат : UTF-8
Идентификатор кодека : S_TEXT/UTF8
Идентификатор кодека/Информация : UTF-8 Plain Text
Язык : English
Default : No
Forced : No




   Похожие торренты   Торрент   Размер 
В этой теме нет новых непрочитанных сообщений. Настоящая Кровь / True Blood [06x01-06] (2013) HDTVRip | Kerob

0 | 2

4.54 ГБ

В этой теме нет новых непрочитанных сообщений. Настоящая Кровь / True Blood [06x01-08] (2013) HDTVRip | Kerob

0 | 2

6 ГБ

В этой теме нет новых непрочитанных сообщений. Настоящая Кровь / True Blood [06x01-09] (2013) HDTVRip | Kerob

0 | 2

6.76 ГБ

В этой теме нет новых непрочитанных сообщений. Настоящая Кровь / True Blood [06x01-10] (2013) HDTVRip | Kerob

7 | 4

7.51 ГБ

В этой теме нет новых непрочитанных сообщений. Настоящая Кровь / True Blood [06x01-06] (2013) HDTVRip 720p | Kerob

0 | 2

13.89 ГБ

В этой теме нет новых непрочитанных сообщений. Настоящая Кровь / True Blood [06x01-10] (2013) HDTVRip 720p | Kerob

0 | 2

23.69 ГБ

В этой теме нет новых непрочитанных сообщений. Настоящая Кровь / True Blood [06x01-10] (2013) WEB-DL 1080p | Кубик в Кубе

4 | 4

22.23 ГБ




Вы не можете начинать темы
Вы не можете отвечать на сообщения
Вы не можете редактировать свои сообщения
Вы не можете удалять свои сообщения
Вы не можете добавлять вложения

Перейти:  
Для Мосгорсуда, Роскомнадзора и рекламодателей: mosgorsud-torrent[собачка]yandex.ru
 Вход
ppkBB3cker v.2 © 2008-2014 @ PPK
[ Time : 3.540s | 15 Queries | GZIP : On ]

Торрент трекер RUTOR.IN, Не можете зайти на rutor.org? Какой новый адрес рутор? Какое зеркало рутор? Не работает rutor.org и зеркала? Тогда наш торрент специально для вас. Rutor.in неофициальное зеркало rutor. В случае если у Вас заблокирован rutor или вдруг Вы не можете на него зайти, то Вы без труда сможете скачать бесплатно и без рекламы последние новинки кино, игр, сериалов и прочего у нас, на Rutor.in. Не нужно использовать прокси, чтобы зайти на рутор, достаточно воспользоваться нашим ресурсом. Все новые фильмы, игры, сериалы, книги и музыка за 2013 и 2014 годы через торрент бесплатно. Скачивайте фильмы в хорошем качестве, игры для пк, xbox, playstation без регистрации. У нас вы найдете новые Зарубежные сериалы и Русские сериалы 2013, 2014, 2015 годов. Оставайтесь с нами, качайте любимые фильмы, игры, сериалы, книги и музыку.