img image001 image001 image001 image001 image001 image001 image001 image001 image001 image001 image001 image001 image001 image001 image001

Planets Sun Sun Sun
Статистика раздачи
Автор: Снежана | Размер: 51.18 ГБ | Добавлен: 25 июл 2013
Раздают: 7    Качают: 13
Скачать торрент
Скачать торрент
Описание торрента

СообщениеДобавлено: 25 июл 2013 





Пятая стража









Год выпуска: 2013
Выпущено: Россия,,ООО "Объединение Телевизионных Компаний"
Жанр: Фантастика, детектив, мистика
Продолжительность: 00:45:00
Сезон: 1
Серии: 1-62
Количество серий в сезоне: 62
Перевод: Не требуется








Режиссер: Василий Пичул




В ролях: Кирилл Козаков, Майя Вознесенская, Матвей Матвеев (II), Ирина Виноградова (III), Ростислав Бершауэр, Олег Семисынов, Егор Вадов, Полина Манохина, Станислав Любшин, Регимантас Адомайтис, Константин Днепровский, Анатолий Петченко, Олег Лебедев-Бовольский





Вампир Феликс был отправлен силами Тьмы в ссылку в город Светлогорск. Графу Дракуле было предсказано, что падет он от руки своего соратника, вампира, и именно он, Феликс, мог прервать путь Графа Тьмы. Появление Феликса в Светлогорске сопровождали, чума, многие смерти и разорение. Немало бед навлек он на городок.
Силы Света заточили Феликса в пещере, где он находился целых пять веков. И вот вампир вышел на свободу. Но теперь мысль о служении Тьме противна ему и Феликс выбрал Добро. В городке Светлогорске он открыл детективное агентство, подобрав команду из таких же как и он — не просто людей, а раскаявшихся грешников, которые готовы стоять на защите Света и Добра. Вместе они расследуют злодеяния, которые ежедневно совершаются силами тьмы и хранят покой города Светлогорска, которому суждено стать местом, где пройдет решающее сражение между силами Тьмы и Света…





Качество: SATRip-AVC
Формат: MPEG-4
Видео кодек: H264
Видео: 2089Кбит/сек,720х480(3/2),в 25.000кадр/сек,AVC(NTSC)(Baseline@L3.0)(1Ref Frames)
Аудио кодек: AAC
Аудио Russian Dolby Digital 5.1: 456Кбит/сек,44.1КГц,6каналов,AAC,(Version4)(LC)





Звуковая дорожка сделана путем наложения чистого голоса озвучивателей на центральный канал оригинальной дорожки. Качество идентично звуковой дорожке.






Общее
Полное имя : D:У Ж А С ЫПятая стражаPyataya_Strazha_2013_RUS[TV3_Russia]_DD5.1_x264_Nikolai.Baranov_SATRip-AVCPyataya_Strazha_E01_RUS[TV3_Russia]_DD5.1_x264_Nikolai.Baranov_SATRip-AVC.mp4
Формат : MPEG-4
Профиль формата : Base Media
Идентификатор кодека : isom
Размер файла : 869 Мбайт
Продолжительность : 47 м.
Режим общего битрейта : Переменный
Общий поток : 2549 Кбит/сек
Дата кодирования : UTC 2013-02-17 19:30:13
Дата пометки : UTC 2013-02-17 19:30:13
Программа кодирования : Lavf51.12.1
Видео
Идентификатор : 1
Формат : AVC
Формат/Информация : Advanced Video Codec
Профиль формата : Baseline@L3.0
Параметр CABAC формата : Нет
Параметр ReFrames формата : 1 кадр
Параметр GOP формата : M=1, N=12
Идентификатор кодека : avc1
Идентификатор кодека/Информация : Advanced Video Coding
Продолжительность : 47 м.
Вид битрейта : Переменный
Битрейт : 2089 Кбит/сек
Максимальный битрейт : 3000 Кбит/сек
Ширина : 720 пикселей
Высота : 480 пикселей
Соотношение сторон : 3:2
Режим частоты кадров : Постоянный
Частота кадров : 25,000 кадров/сек
Частота кадров в оригинале : 24,000 кадра/сек
Стандарт вещания : NTSC
Цветовое пространство : YUV
Субдискретизация насыщенности : 4:2:0
Битовая глубина : 8 бит
Тип развёртки : Прогрессивная
Бит/(Пиксели*Кадры) : 0.242
Размер потока : 712 Мбайт (82%)
Дата кодирования : UTC 2013-02-17 19:30:13
Дата пометки : UTC 2013-02-17 19:30:13
Аудио
Идентификатор : 2
Формат : AAC
Формат/Информация : Advanced Audio Codec
Профиль формата : LC
Идентификатор кодека : 40
Продолжительность : 47 м.
Вид битрейта : Переменный
Битрейт : 456 Кбит/сек
Каналы : 6 каналов
Расположение каналов : Front: L C R, Side: L R, LFE
Частота : 44,1 КГц
Метод сжатия : С потерями
Размер потока : 155 Мбайт (18%)
Дата кодирования : UTC 2013-02-17 19:30:13
Дата пометки : UTC 2013-02-17 19:30:13



















1. Открыть торрент
2. Снять галки с тех файлов торрента, которые мы не хотим закачивать. Оставляем только на нужных нам файлах (файле).
3. Нажать О.К.
В клиенте utorrent
Инструкция
1) Открыть торрент

2) Снять галки с тех файлов торрента, которые мы не хотим закачивать:
* либо вручную, снимая с каждого файла галку( скрин №1)
* либо, нажав кнопку "Снять метки (Select None)", сняв сразу со всех файлов(скрин №2)
№1

№2

Оставляем только на нужных нам файлах (файле).

3)Нажать О.К






Внимание!!! 18.06. 2013. РАЗДАЧА ОБНОВЛЕНА.ФИНАЛ СЕЗОНА.ОБНОВИТЕ ТОРЕНТ ФАЙЛ.ПРИЯТНОГО ПРОСМОТРА.






Релиз от: Nikolai.Baranov





















   Похожие торренты   Торрент   Размер 
В этой теме нет новых непрочитанных сообщений. Пятая стража 2 [01-63] (2013) SATRip

248 | 161

30.73 ГБ

В этой теме нет новых непрочитанных сообщений. Пятая стража [01-62] (2013) SATRip

142 | 157

31.66 ГБ

В этой теме нет новых непрочитанных сообщений. Пятая стража [01-50 из 64] (2013) SATRip-AVC

3 | 24

41.83 ГБ

В этой теме нет новых непрочитанных сообщений. Пятая стража 2 [01-55] (2013) SATRip от РиперАМ

8 | 17

27.02 ГБ

В этой теме нет новых непрочитанных сообщений. Пятая стража [01-02x01-125 из ХХ] (2013) SATRip-AVC

49 | 84

94.46 ГБ

В этой теме нет новых непрочитанных сообщений. Пятая стража. Схватка [01-02 из 60] (2016) SATRip от РиперАМ

157 | 9

1.24 ГБ

В этой теме нет новых непрочитанных сообщений. Пятая стража. Схватка [01-04 из 60] (2016) SATRip от РиперАМ

213 | 12

2.38 ГБ




Вы не можете начинать темы
Вы не можете отвечать на сообщения
Вы не можете редактировать свои сообщения
Вы не можете удалять свои сообщения
Вы не можете добавлять вложения

Перейти:  
Для Мосгорсуда, Роскомнадзора и рекламодателей: mosgorsud-torrent[собачка]yandex.ru
 Вход
ppkBB3cker v.2 © 2008-2014 @ PPK
[ Time : 0.032s | 17 Queries | GZIP : Off ]

Торрент трекер RUTOR.IN, Не можете зайти на rutor.org? Какой новый адрес рутор? Какое зеркало рутор? Не работает rutor.org и зеркала? Тогда наш торрент специально для вас. Rutor.in неофициальное зеркало rutor. В случае если у Вас заблокирован rutor или вдруг Вы не можете на него зайти, то Вы без труда сможете скачать бесплатно и без рекламы последние новинки кино, игр, сериалов и прочего у нас, на Rutor.in. Не нужно использовать прокси, чтобы зайти на рутор, достаточно воспользоваться нашим ресурсом. Все новые фильмы, игры, сериалы, книги и музыка за 2013 и 2014 годы через торрент бесплатно. Скачивайте фильмы в хорошем качестве, игры для пк, xbox, playstation без регистрации. У нас вы найдете новые Зарубежные сериалы и Русские сериалы 2013, 2014, 2015 годов. Оставайтесь с нами, качайте любимые фильмы, игры, сериалы, книги и музыку.