img image001 image001 image001 image001 image001 image001 image001 image001 image001 image001 image001 image001 image001 image001 image001

Planets Sun Sun Sun
Статистика раздачи
Автор: Снежана | Размер: 6.32 ГБ | Добавлен: 25 июл 2013
Раздают: 123    Качают: 27
Скачать торрент
Скачать торрент
Описание торрента

СообщениеДобавлено: 25 июл 2013 

#77
Год выпуска: 2012
Производство: Россия, Централ Партнершип
Жанр: боевик, драма, криминал
Продолжительность: 8 ~ 00:50:00
Субтитры: нет

Режиссёр: Юрий Быков


В ролях: Даниил Страхов, Елена Лядова, Александр Коршунов, Алексей Комашко, Андрей Казаков, Анастасия Панина, Денис Шведов, Константин Гацалов, Анзор Камариддинов, Юрий Тарасов...


Описание: Новости о нападениях на инкассаторов в наше время, увы, стали чем-то будничным, но это событие буквально потрясло общественность: один сотрудник известной инкассаторской службы убит, другой тяжело ранен. Кровавое преступление совершено столь четко и слаженно, что следователи не могут не заподозрить: у налетчиков есть информатор среди инкассаторов. Не подозревают они лишь о том, что денег украдено гораздо больше, чем значится по документам: в машине был «черный нал», о котором органам знать не следует.
Начальник службы инкассации решает втайне от следствия внедрить в группу инкассаторов своего человека, бывшего сослуживца Вадима. Его задача — вычислить предателя, цинично работающего на «два фронта». Трудность в том, что мотивы и возможности есть практически у всех…





Качество: DVDRip (DVD9 R5)
Формат: AVI

Видео: 720x400 (16:9), 25.000 fps, XViD ~ 2000 kbps avg, 0.278 bit/pixel
Аудио: 48 kHz, АС3 2 ch, 192 kbps, русский

Раздача от:
Общее
Полное имя : Inkassatory.2012.O.DVDRip_[Youtracker]_by_avproh1.avi
Формат : AVI
Формат/Информация : Audio Video Interleave
Размер файла : 818 Мбайт
Продолжительность : 51 м.
Общий поток : 2201 Кбит/сек
Программа кодирования : VirtualDubMod 1.5.10.3 | www.virtualdub-fr.org || (build 2550/release)
Библиотека кодирования : VirtualDubMod build 2550/release

Видео
Идентификатор : 0
Формат : MPEG-4 Visual
Профиль формата : Advanced Simple@L5
Параметр BVOP формата : 1
Параметр QPel формата : Нет
Параметр GMC формата : Без точки перехода
Параметр матрицы формата : Выборочная
Идентификатор кодека : XVID
Идентификатор кодека/Подсказка : XviD
Продолжительность : 51 м.
Битрейт : 1999 Кбит/сек
Ширина : 720 пикселей
Высота : 400 пикселей
Соотношение сторон : 16:9
Частота кадров : 25,000 кадров/сек
Цветовое пространство : YUV
Субдискретизация насыщенности : 4:2:0
Битовая глубина : 8 бит
Тип развёртки : Прогрессивная
Метод сжатия : С потерями
Бит/(Пиксели*Кадры) : 0.278
Размер потока : 743 Мбайт (91%)
Библиотека кодирования : XviD 65

Аудио
Идентификатор : 1
Формат : AC-3
Формат/Информация : Audio Coding 3
Расширение режима : CM (complete main)
Параметр Endianness формата : Big
Идентификатор кодека : 2000
Продолжительность : 51 м.
Вид битрейта : Постоянный
Битрейт : 192 Кбит/сек
Каналы : 2 канала
Расположение каналов : Front: L R
Частота : 48,0 КГц
Битовая глубина : 16 бит
Метод сжатия : С потерями
Размер потока : 71,4 Мбайт (9%)
Выравнивание : Разделение по промежуткам
Продолжительность промежутка : 40 мс. (1,00 видеокадр)
Время предзагрузки промежутка : 500 мс.






   Похожие торренты   Торрент   Размер 
В этой теме нет новых непрочитанных сообщений. Инкассаторы [01-08 из 08] (2012) DVDRip-AVC от Youtracker | лицензия

7 | 9

6.32 ГБ

В этой теме нет новых непрочитанных сообщений. Инкассаторы [01-08 из 08] (2012) DVD9 R5 от Youtracker | лицензия

0 | 4

7.67 ГБ

В этой теме нет новых непрочитанных сообщений. Инкассаторы [01-08 из 08] (2012) DVDRip от Generalfilm | КПК

30 | 12

1.61 ГБ

В этой теме нет новых непрочитанных сообщений. Инкассаторы [01-08 из 08] (2012) DVB

7 | 4

6.5 ГБ

В этой теме нет новых непрочитанных сообщений. Инкассаторы [01-08 из 08] (2012) SATRip-AVC

31 | 18

3.6 ГБ

В этой теме нет новых непрочитанных сообщений. Инкассаторы [01-08 из 08] (2012) WEB-DL 1080p от Getty

7 | 4

12.03 ГБ

В этой теме нет новых непрочитанных сообщений. Под прикрытием [01-12 из 12] (2012) DVDRip от Youtracker | лицензия

82 | 17

9.39 ГБ




Вы не можете начинать темы
Вы не можете отвечать на сообщения
Вы не можете редактировать свои сообщения
Вы не можете удалять свои сообщения
Вы не можете добавлять вложения

Перейти:  
Для Мосгорсуда, Роскомнадзора и рекламодателей: mosgorsud-torrent[собачка]yandex.ru
 Вход
ppkBB3cker v.2 © 2008-2014 @ PPK
[ Time : 0.052s | 14 Queries | GZIP : Off ]

Торрент трекер RUTOR.IN, Не можете зайти на rutor.org? Какой новый адрес рутор? Какое зеркало рутор? Не работает rutor.org и зеркала? Тогда наш торрент специально для вас. Rutor.in неофициальное зеркало rutor. В случае если у Вас заблокирован rutor или вдруг Вы не можете на него зайти, то Вы без труда сможете скачать бесплатно и без рекламы последние новинки кино, игр, сериалов и прочего у нас, на Rutor.in. Не нужно использовать прокси, чтобы зайти на рутор, достаточно воспользоваться нашим ресурсом. Все новые фильмы, игры, сериалы, книги и музыка за 2013 и 2014 годы через торрент бесплатно. Скачивайте фильмы в хорошем качестве, игры для пк, xbox, playstation без регистрации. У нас вы найдете новые Зарубежные сериалы и Русские сериалы 2013, 2014, 2015 годов. Оставайтесь с нами, качайте любимые фильмы, игры, сериалы, книги и музыку.