img image001 image001 image001 image001 image001 image001 image001 image001 image001 image001 image001 image001 image001 image001 image001

Planets Sun Sun Sun
Статистика раздачи
Автор: Снежана | Размер: 6.32 ГБ | Добавлен: 25 июл 2013
Раздают: 7    Качают: 9
Скачать торрент
Скачать торрент
Описание торрента

СообщениеДобавлено: 25 июл 2013 

#77
Год выпуска: 2012
Производство: Россия, Централ Партнершип
Жанр: боевик, драма, криминал
Продолжительность: 8 ~ 00:50:00
Субтитры: нет

Режиссёр: Юрий Быков


В ролях: Даниил Страхов, Елена Лядова, Александр Коршунов, Алексей Комашко, Андрей Казаков, Анастасия Панина, Денис Шведов, Константин Гацалов, Анзор Камариддинов, Юрий Тарасов...


Описание: Новости о нападениях на инкассаторов в наше время, увы, стали чем-то будничным, но это событие буквально потрясло общественность: один сотрудник известной инкассаторской службы убит, другой тяжело ранен. Кровавое преступление совершено столь четко и слаженно, что следователи не могут не заподозрить: у налетчиков есть информатор среди инкассаторов. Не подозревают они лишь о том, что денег украдено гораздо больше, чем значится по документам: в машине был «черный нал», о котором органам знать не следует.
Начальник службы инкассации решает втайне от следствия внедрить в группу инкассаторов своего человека, бывшего сослуживца Вадима. Его задача — вычислить предателя, цинично работающего на «два фронта». Трудность в том, что мотивы и возможности есть практически у всех…





Качество: DVDRip-AVC (DVD9 R5)
Формат: MKV

Видео: 720x576@1024x576 (16:9), 25.000 fps, H264 ~ 2006 kbps avg, 0.193 bit/pixel
Аудио: 48 kHz, АС3 2 ch, 192 kbps, русский

Раздача от:
Общее
Полное имя : Inkassatory.2012.O.DVDRip-AVC_[Youtracker]_by_avproh1.mkv
Формат : Matroska
Версия формата : Version 2
Размер файла : 817 Мбайт
Продолжительность : 51 м.
Общий поток : 2199 Кбит/сек
Дата кодирования : UTC 2013-06-21 01:20:04
Программа кодирования : mkvmerge v5.0.1 ('Es ist Sommer') built on Nov 6 2011 16:23:40
Библиотека кодирования : libebml v1.2.2 + libmatroska v1.3.0

Видео
Идентификатор : 1
Формат : AVC
Формат/Информация : Advanced Video Codec
Профиль формата : High@L4.1
Параметр CABAC формата : Да
Параметр ReFrames формата : 11 кадров
Идентификатор кодека : V_MPEG4/ISO/AVC
Продолжительность : 51 м.
Битрейт : 2006 Кбит/сек
Ширина : 720 пикселей
Высота : 576 пикселей
Соотношение сторон : 16:9
Режим частоты кадров : Постоянный
Частота кадров : 25,000 кадров/сек
Стандарт вещания : PAL
Цветовое пространство : YUV
Субдискретизация насыщенности : 4:2:0
Битовая глубина : 8 бит
Тип развёртки : Прогрессивная
Бит/(Пиксели*Кадры) : 0.193
Размер потока : 730 Мбайт (89%)
Библиотека кодирования : x264 core 130 r2273 b3065e6
Настройки программы : cabac=1 / ref=11 / deblock=1:-2:-1 / analyse=0x3:0x113 / me=umh / subme=9 / psy=1 / psy_rd=1.00:0.20 / mixed_ref=1 / me_range=32 / chroma_me=1 / trellis=1 / 8x8dct=1 / cqm=0 / deadzone=21,11 / fast_pskip=0 / chroma_qp_offset=-3 / threads=9 / lookahead_threads=1 / sliced_threads=0 / nr=0 / decimate=0 / interlaced=0 / bluray_compat=0 / constrained_intra=0 / bframes=8 / b_pyramid=2 / b_adapt=2 / b_bias=0 / direct=3 / weightb=1 / open_gop=0 / weightp=2 / keyint=250 / keyint_min=25 / scenecut=40 / intra_refresh=0 / rc_lookahead=60 / rc=2pass / mbtree=1 / bitrate=2006 / ratetol=1.0 / qcomp=0.60 / qpmin=0 / qpmax=69 / qpstep=4 / cplxblur=20.0 / qblur=0.5 / ip_ratio=1.40 / aq=1:1.00
Default : Да
Forced : Нет

Аудио
Идентификатор : 2
Формат : AC-3
Формат/Информация : Audio Coding 3
Расширение режима : CM (complete main)
Параметр Endianness формата : Big
Идентификатор кодека : A_AC3
Продолжительность : 51 м.
Вид битрейта : Постоянный
Битрейт : 192 Кбит/сек
Каналы : 2 канала
Расположение каналов : Front: L R
Частота : 48,0 КГц
Битовая глубина : 16 бит
Метод сжатия : С потерями
Размер потока : 71,4 Мбайт (9%)
Default : Да
Forced : Нет






   Похожие торренты   Торрент   Размер 
В этой теме нет новых непрочитанных сообщений. Инкассаторы [01-08 из 08] (2012) DVDRip от Youtracker | лицензия

123 | 27

6.32 ГБ

В этой теме нет новых непрочитанных сообщений. Инкассаторы [01-08 из 08] (2012) DVD9 R5 от Youtracker | лицензия

0 | 4

7.67 ГБ

В этой теме нет новых непрочитанных сообщений. Инкассаторы [01-08 из 08] (2012) DVDRip от Generalfilm | КПК

30 | 12

1.61 ГБ

В этой теме нет новых непрочитанных сообщений. Инкассаторы [01-08 из 08] (2012) DVB

7 | 4

6.5 ГБ

В этой теме нет новых непрочитанных сообщений. Инкассаторы [01-08 из 08] (2012) SATRip-AVC

31 | 18

3.6 ГБ

В этой теме нет новых непрочитанных сообщений. Инкассаторы [01-08 из 08] (2012) WEB-DL 1080p от Getty

7 | 4

12.03 ГБ

В этой теме нет новых непрочитанных сообщений. Под прикрытием [01-12 из 12] (2012) DVDRip от Youtracker | лицензия

82 | 17

9.39 ГБ




Вы не можете начинать темы
Вы не можете отвечать на сообщения
Вы не можете редактировать свои сообщения
Вы не можете удалять свои сообщения
Вы не можете добавлять вложения

Перейти:  
Для Мосгорсуда, Роскомнадзора и рекламодателей: mosgorsud-torrent[собачка]yandex.ru
 Вход
ppkBB3cker v.2 © 2008-2014 @ PPK
[ Time : 0.032s | 16 Queries | GZIP : Off ]

Торрент трекер RUTOR.IN, Не можете зайти на rutor.org? Какой новый адрес рутор? Какое зеркало рутор? Не работает rutor.org и зеркала? Тогда наш торрент специально для вас. Rutor.in неофициальное зеркало rutor. В случае если у Вас заблокирован rutor или вдруг Вы не можете на него зайти, то Вы без труда сможете скачать бесплатно и без рекламы последние новинки кино, игр, сериалов и прочего у нас, на Rutor.in. Не нужно использовать прокси, чтобы зайти на рутор, достаточно воспользоваться нашим ресурсом. Все новые фильмы, игры, сериалы, книги и музыка за 2013 и 2014 годы через торрент бесплатно. Скачивайте фильмы в хорошем качестве, игры для пк, xbox, playstation без регистрации. У нас вы найдете новые Зарубежные сериалы и Русские сериалы 2013, 2014, 2015 годов. Оставайтесь с нами, качайте любимые фильмы, игры, сериалы, книги и музыку.