img image001 image001 image001 image001 image001 image001 image001 image001 image001 image001 image001 image001 image001 image001 image001

Planets Sun Sun Sun
Статистика раздачи
Автор: Снежана | Размер: 2.48 ГБ | Добавлен: 26 июл 2013
Раздают: 148    Качают: 60
Скачать торрент
Скачать торрент
Описание торрента

СообщениеДобавлено: 26 июл 2013 

#77

Информация о фильме
Название: Игра престолов
Оригинальное название: Game of Thrones
Год выхода: 2012
Жанр: Фэнтези, драма, приключения
Режиссер: Алан Тейлор, Брайан Кирк, Даниэль Минахан
В ролях: Питер Динклэйдж, Марк Эдди, Николай Костер-Валдау, Мишель Фэйрли, Лена Хиди, Эмилия Кларк, Иэн Глен, Эйдан Гиллен и др.

О фильме:
В Вестеросе наступила осень — предвестник долгой зимы, когда Белые ходоки пробудятся ото сна. Но Стена и её защитники позабыты: три короля претендуют на Железный трон и два верховных лорда провозгласили себя королями над своими землями. Никто из них не желает заключить союзы, и каждый считает свое право на трон священным. И воцарился над миром кровавый хаос войны. И началась великая битва, в которой наградою победителю станет Железный Трон Семи Королевств.
Страшные настали времена — времена отваги и отмщения, интриги и магии. Ныне дева повстречает безумца, а брат занесет меч на брата. Ныне убитые восстанут — и пойдут тропою Тьмы. Ныне вонзится холодная сталь в холодные сердца.
Ныне грядет предначертанная пророчеством БИТВА КОРОЛЕЙ…
Страна: США
Студия: НВО
Продолжительность серии: ~55 минут
Перевод: Профессиональный (многоголосый, закадровый) LostFilm

Файл
Тип релиза: HDTVRip
Контейнер: MP4
Кодек: H264 (AVC)
Качество: HDTVRip | КПК
Видео: AVC at 509 Кбит/сек, 640 x 352 (1.793) at 23.976 fps
Звук: AAC at 128 Кбит/сек, 2 канала, 48,0 КГц
Субтитры: Отсутствуют

Код:
Общее
Полное имя                               : Игра престолов 2 сезон Серия 01.mp4
Формат                                   : MPEG-4
Профиль формата                          : Base Media
Идентификатор кодека                     : isom
Размер файла                             : 247 Мбайт
Продолжительность                        : 55 м.
Общий поток                              : 625 Кбит/сек
Исполнитель                              : RG BrodimCom
Дата кодирования                         : UTC 2013-06-17 18:26:07
Дата пометки                             : UTC 2013-06-17 18:26:07
Программа кодирования                    : XviD4PSP 6.0 / 54.29.105

Видео
Идентификатор                            : 1
Формат                                   : AVC
Формат/Информация                        : Advanced Video Codec
Профиль формата                          : Main@L4.1
Параметр CABAC формата                   : Да
Параметр ReFrames формата                : 3 кадра
Идентификатор кодека                     : avc1
Идентификатор кодека/Информация          : Advanced Video Coding
Продолжительность                        : 55 м.
Битрейт                                  : 509 Кбит/сек
Ширина                                   : 640 пикселей
Высота                                   : 352 пикселя
Соотношение сторон                       : 16:9
Режим частоты кадров                     : Постоянный
Частота кадров                           : 23,976 кадра/сек
Цветовое пространство                    : YUV
Субдискретизация насыщенности            : 4:2:0
Битовая глубина                          : 8 бит
Тип развёртки                            : Прогрессивная
Бит/(Пиксели*Кадры)                      : 0.094
Размер потока                            : 194 Мбайт (79%)
Библиотека кодирования                   : x264 core 128 r2216M 198a7ea
Настройки программы                      : cabac=1 / ref=3 / deblock=1:0:0 / analyse=0x1:0x131 / me=hex / subme=7 / psy=1 / psy_rd=1.00:0.20 / mixed_ref=1 / me_range=16 / chroma_me=1 / trellis=1 / 8x8dct=0 / cqm=0 / deadzone=21,11 / fast_pskip=1 / chroma_qp_offset=-3 / threads=8 / lookahead_threads=1 / sliced_threads=0 / nr=0 / decimate=1 / interlaced=0 / bluray_compat=0 / constrained_intra=0 / bframes=3 / b_pyramid=0 / b_adapt=2 / b_bias=0 / direct=3 / weightb=1 / open_gop=0 / weightp=0 / keyint=230 / keyint_min=23 / scenecut=40 / intra_refresh=0 / rc_lookahead=40 / rc=cbr / mbtree=1 / bitrate=509 / ratetol=1.0 / qcomp=0.60 / qpmin=10 / qpmax=51 / qpstep=4 / vbv_maxrate=509 / vbv_bufsize=1835 / nal_hrd=none / ip_ratio=1.40 / aq=1:1.00
Язык                                     : English
Дата кодирования                         : UTC 2013-06-17 18:26:07
Дата пометки                             : UTC 2013-06-17 18:26:07

Аудио
Идентификатор                            : 2
Формат                                   : AAC
Формат/Информация                        : Advanced Audio Codec
Профиль формата                          : LC
Идентификатор кодека                     : 40
Продолжительность                        : 55 м.
Вид битрейта                             : Постоянный
Битрейт                                  : 128 Кбит/сек
Каналы                                   : 2 канала
Расположение каналов                     : Front: L R
Частота                                  : 48,0 КГц
Метод сжатия                             : С потерями
Задержка видео                           : 42 мс.
Размер потока                            : 50,5 Мбайт (20%)
Язык                                     : Russian
Дата кодирования                         : UTC 2013-06-17 18:26:07
Дата пометки                             : UTC 2013-06-17 18:26:07 



   Похожие торренты   Торрент   Размер 
В этой теме нет новых непрочитанных сообщений. Игра престолов / Game of Thrones [S02] (2012) HDTVRip | Sub

9 | 4

5.15 ГБ

В этой теме нет новых непрочитанных сообщений. Игра престолов / Game of Thrones [S02] (2012) HDTVRip 720p | Sub

12 | 8

13.39 ГБ

В этой теме нет новых непрочитанных сообщений. Игра престолов / Game of Thrones [S02] (2012) HDTVRip | BaibaKо

93 | 17

7.51 ГБ

В этой теме нет новых непрочитанных сообщений. Игра престолов / Game of Thrones [S02] (2012) HDTVRip | P AlexFilm

100 | 14

5.82 ГБ

В этой теме нет новых непрочитанных сообщений. Игра престолов / Game of Thrones [S02] (2012) HDTVRip | P LostFilm

499 | 82

3.83 ГБ

В этой теме нет новых непрочитанных сообщений. Игра престолов / Game of Thrones [S02] (2012) HDTVRip | КПК | LostFilm

609 | 98

2.1 ГБ

В этой теме нет новых непрочитанных сообщений. Игра престолов / Game of Thrones [S02] (2012) HDTVRip | P LostFilm

1997 | 317

5.63 ГБ




Вы не можете начинать темы
Вы не можете отвечать на сообщения
Вы не можете редактировать свои сообщения
Вы не можете удалять свои сообщения
Вы не можете добавлять вложения

Перейти:  
Для Мосгорсуда, Роскомнадзора и рекламодателей: mosgorsud-torrent[собачка]yandex.ru
 Вход
ppkBB3cker v.2 © 2008-2014 @ PPK
[ Time : 0.031s | 13 Queries | GZIP : Off ]
CGP output time : 0.079s | 5 Queries | GZIP : Off

Торрент трекер RUTOR.IN, Не можете зайти на rutor.org? Какой новый адрес рутор? Какое зеркало рутор? Не работает rutor.org и зеркала? Тогда наш торрент специально для вас. Rutor.in неофициальное зеркало rutor. В случае если у Вас заблокирован rutor или вдруг Вы не можете на него зайти, то Вы без труда сможете скачать бесплатно и без рекламы последние новинки кино, игр, сериалов и прочего у нас, на Rutor.in. Не нужно использовать прокси, чтобы зайти на рутор, достаточно воспользоваться нашим ресурсом. Все новые фильмы, игры, сериалы, книги и музыка за 2013 и 2014 годы через торрент бесплатно. Скачивайте фильмы в хорошем качестве, игры для пк, xbox, playstation без регистрации. У нас вы найдете новые Зарубежные сериалы и Русские сериалы 2013, 2014, 2015 годов. Оставайтесь с нами, качайте любимые фильмы, игры, сериалы, книги и музыку.