img image001 image001 image001 image001 image001 image001 image001 image001 image001 image001 image001 image001 image001 image001 image001

Planets Sun Sun Sun
Статистика раздачи
Автор: Снежана | Размер: 28.14 ГБ | Добавлен: 25 июл 2013
Раздают: 4    Качают: 6
Скачать торрент
Скачать торрент
Описание торрента

СообщениеДобавлено: 25 июл 2013 

#77

Информация о фильме
Название: Необычная семья / Необыкновенная семейка
Оригинальное название: No Ordinary Family
Год выхода: 2010-2011
Жанр: Фантастика, боевик, драма, комедия
Режиссер: Тимоти Басфилд, Терри МакДонаф, Дэвид Семел
В ролях: Майкл Чиклис, Джули Бенц, Кэй Панабэйкер, Джимми Беннетт, Отем Ризер, Романи Малко, Стивен Коллинз, Джош Стюарт, Джейсон Антун, Люк Клейнтан, Джейсон Уайлз

О фильме:
Джим работает в полиции, однако он всего лишь составляет словесные портреты. Его жена Стефани, наоборот, успешный и блестящий ученый. Несмотря на то, что они все еще любят друг друга, былая искра в их отношениях уже давно потеряна. Однако все меняется когда Стефани, Джим и их двое детей отправляются в исследовательскую поездку на Амазонку, где их семейный самолет упал в болотистую реку. Сами они спаслись, однако их пилоту, к сожалению, повезло меньше. По возвращении к прежней жизни они с удивлением обнаружили, что теперь обладают экстраординарными способностями. Джиму досталась суперсила с бонусом в виде удивительных рефлексов. Стефани может развивать молниеносную скорость. Дафни слышит мысли окружающих, включая своего 16-летнего бойфренда. Джей Джей, никогда не отличавшийся умом, удивительным образом превратился в гения. Новые способности, несомненно, воодушевили Пауэллов, однако они скоро понимают, что самые трудные задачи могут быть самыми обычными. Конечно, они могут бороться с преступниками, но никакие супер способности в мире не смогут исправить эмоциональные проблемы. Пауэллам лучше поторопиться уладить все дела, потому что пилот, которого они оставили на дне реки, только что… очнулся.

Страна: США
Продолжительность: 20 x ~ 00:43:00
Перевод: Профессиональный многоголосый (Fox Life)

Подготовка видео: Alucard
Монтаж и работа со звуком: jugin
Файл
Кодек: MPEG-4 AVC
Качество: WEB-DL 720p
Видео: ~ 3965 Кбит/с, 1280x720
Звук: Русский (AC3, 2 ch, 192 Кбит/с), английский (AC3, 6 ch, 384 Кбит/с)
01. Необыкновенный пилот / No Ordinary Pilot
02. Необыкновенный брак / No Ordinary Marriage
03. Необыкновенное кольцо / No Ordinary Ring
04. Необыкновенная бдительность / No Ordinary Vigilante
05. Необыкновенное землетрясение / No Ordinary Quake
06. Необыкновенные посетители / No Ordinary Visitors
07. Необыкновенный бандит / No Ordinary Mobster
08. Необыкновенный несчастный случай / No Ordinary Accident
09. Необыкновенная годовщина / No Ordinary Anniversary
10. Необыкновенный кореш / No Ordinary Sidekick
11. Необыкновенные друзья / No Ordinary Friends
12. Необыкновенный брат / No Ordinary Brother
13. Необыкновенное задержание / No Ordinary Detention
14. Необыкновенный двойной стандарт / No Ordinary Double Standard
15. Необыкновенные Пауэллы / No Ordinary Powell
16. Необыкновенное предложение / No Ordinary Proposal
17. Необыкновенная любовь / No Ordinary Love
18. Необыкновенное животное / No Ordinary Animal
19. Необыкновенное будущее / No Ordinary Future
20. Необыкновенное начало / No Ordinary Beginning
Примечание. Русские названия серий - результат перевода. Официальных русских названий не найдено.

General
Format : Matroska
File size : 1.45 GiB
Duration : 43mn 54s
Overall bit rate : 4 714 Kbps
Encoded date : UTC 2011-04-17 14:08:30
Writing application : mkvmerge v2.9.0 ('Moanin'') built on May 22 2009 17:46:31
Writing library : libebml v0.7.7 + libmatroska v0.8.1

Video
ID : 1
Format : AVC
Format/Info : Advanced Video Codec
Format profile : High@L3.1
Format settings, CABAC : No
Format settings, ReFrames : 2 frames
Muxing mode : Container profile=Unknown@3.1
Codec ID : V_MPEG4/ISO/AVC
Duration : 43mn 54s
Bit rate : 4 044 Kbps
Width : 1 280 pixels
Height : 720 pixels
Display aspect ratio : 16:9
Frame rate : 23.976 fps
Resolution : 8 bits
Colorimetry : 4:2:0
Scan type : Progressive
Bits/(Pixel*Frame) : 0.183
Stream size : 1.24 GiB (86%)
Title : No Ordinary Family - Season 1, Episode 1: Pilot
Language : English
Color primaries : BT.709-5, BT.1361, IEC 61966-2-4, SMPTE RP177
Transfer characteristics : BT.709-5, BT.1361
Matrix coefficients : BT.709-5, BT.1361, IEC 61966-2-4 709, SMPTE RP177

Audio #1
ID : 2
Format : AC-3
Format/Info : Audio Coding 3
Codec ID : A_AC3
Duration : 43mn 54s
Bit rate mode : Constant
Bit rate : 192 Kbps
Channel(s) : 2 channels
Channel positions : Front: L R
Sampling rate : 48.0 KHz
Stream size : 60.3 MiB (4%)
Language : Russian

Audio #2
ID : 3
Format : AC-3
Format/Info : Audio Coding 3
Codec ID : A_AC3
Duration : 43mn 54s
Bit rate mode : Constant
Bit rate : 384 Kbps
Channel(s) : 6 channels
Channel positions : Front: L C R, Side: L R, LFE
Sampling rate : 48.0 KHz
Stream size : 121 MiB (8%)
Language : English




Релиз от:



   Похожие торренты   Торрент   Размер 
В этой теме нет новых непрочитанных сообщений. Необычная семья / Необыкновенная семейка / No Ordinary Family [01x01-20] (2010) WEB-DLRip от NovaFilm

52 | 2

7.96 ГБ

В этой теме нет новых непрочитанных сообщений. Необычная семья / Необыкновенная семейка / No Ordinary Family [S01] (2010-2011) WEB-DL 720p | Немое Кино

0 | 2

28.3 ГБ

В этой теме нет новых непрочитанных сообщений. Необычная семья / Необыкновенная семейка / No Ordinary Family [S01] (2010-2011) HDTVRip | Немое Кино

2 | 2

7.75 ГБ

В этой теме нет новых непрочитанных сообщений. Необыкновенная семейка / Необычная семья / No Ordinary Family [01-20 из 20] (2010) WEBDLRip-AVC

1 | 1

15.85 ГБ

В этой теме нет новых непрочитанных сообщений. Американская Семейка / Modern Family [s02] (2010-2011) WEB-DL 720p | LostFilm

8 | 3

17.78 ГБ

В этой теме нет новых непрочитанных сообщений. Американская Семейка / Modern Family [s02] (2010-2011) WEB-DLRip | LostFilm

75 | 14

6.85 ГБ

В этой теме нет новых непрочитанных сообщений. Мы - семья / We Are Family (2010) DVDRip от ICG & Generalfilm

14 | 4

1.83 ГБ




Вы не можете начинать темы
Вы не можете отвечать на сообщения
Вы не можете редактировать свои сообщения
Вы не можете удалять свои сообщения
Вы не можете добавлять вложения

Перейти:  
Для Мосгорсуда, Роскомнадзора и рекламодателей: mosgorsud-torrent[собачка]yandex.ru
 Вход
ppkBB3cker v.2 © 2008-2014 @ PPK
[ Time : 0.052s | 14 Queries | GZIP : On ]

Торрент трекер RUTOR.IN, Не можете зайти на rutor.org? Какой новый адрес рутор? Какое зеркало рутор? Не работает rutor.org и зеркала? Тогда наш торрент специально для вас. Rutor.in неофициальное зеркало rutor. В случае если у Вас заблокирован rutor или вдруг Вы не можете на него зайти, то Вы без труда сможете скачать бесплатно и без рекламы последние новинки кино, игр, сериалов и прочего у нас, на Rutor.in. Не нужно использовать прокси, чтобы зайти на рутор, достаточно воспользоваться нашим ресурсом. Все новые фильмы, игры, сериалы, книги и музыка за 2013 и 2014 годы через торрент бесплатно. Скачивайте фильмы в хорошем качестве, игры для пк, xbox, playstation без регистрации. У нас вы найдете новые Зарубежные сериалы и Русские сериалы 2013, 2014, 2015 годов. Оставайтесь с нами, качайте любимые фильмы, игры, сериалы, книги и музыку.