img image001 image001 image001 image001 image001 image001 image001 image001 image001 image001 image001 image001 image001 image001 image001 image001

Planets Sun Sun Sun
Статистика раздачи
Автор: Снежана | Размер: 42.75 ГБ | Добавлен: 25 июл 2013
Раздают: 57    Качают: 75
Скачать торрент
Скачать торрент
Описание торрента

СообщениеДобавлено: 25 июл 2013 

#77

Информация о фильме
Название: Великолепный век
Оригинальное название: Muhtesem Yüzyil
Год выхода: 2012-2013
Жанр: драма, мелодрама, военный, биография, история
Режиссер: Дурул Тайлан / Durul Taylan, Ягмур Тайлан / Yagmur Taylan
В ролях: Небахат Чехре /Nebahat Çehre/, Окан Ялабик /Okan Yalabik/, Сельма Эргеч /Selma Ergeç/, Халит Эргенч /Halit Ergenç/, Филиз Ахмет /Filiz Ahmet/

О фильме:
Сюжет основан на реальных событиях, произошедших во времена правления султана Сулеймана I, и расказывает о периоде жизни девушки Роксоланы, взятой в плен турками и названной Хюррем. Позже она стала первой официальной женой Сулеймана, но для этого ей пришлось пройти сложный путь…

Страна: Турция
Продолжительность: ~ 100 минут серия
Перевод: Любительский (одноголосый, закадровый) [turok1990]
Переводчик с турецкого языка: Елена -ELVAN- Белова.

Файл
Кодек: DivX / MP3
Качество: HDTVRip
Видео: DivX, 720x408 (1.76:1), 25.000 fps, ~1200 kbps, ~0.16 bit/pixel
Звук: MP3, 48 kHz, 2 ch, ~256 kbps

Семпл

General
Complete name : /media/vek_sezon_3_turok1990/64.Muhtesem_Yuzyil_turok1990.avi
Format : AVI
Format/Info : Audio Video Interleave
File size : 1.12 GiB
Duration : 1h 49mn
Overall bit rate : 1 464 Kbps
Writing library : TMPGEnc 4.0 XPress Version. 4.6.3.267

Video
ID : 0
Format : MPEG-4 Visual
Format settings, BVOP : Yes
Format settings, QPel : No
Format settings, GMC : No warppoints
Format settings, Matrix : Default (H.263)
Codec ID : DX50
Codec ID/Hint : DivX 5
Duration : 1h 49mn
Bit rate : 1 196 Kbps
Width : 720 pixels
Height : 408 pixels
Display aspect ratio : 16:9
Frame rate : 25.000 fps
Color space : YUV
Chroma subsampling : 4:2:0
Bit depth : 8 bits
Scan type : Progressive
Compression mode : Lossy
Bits/(Pixel*Frame) : 0.163
Stream size : 936 MiB (82%)
Writing library : DivX 6.8.5 (UTC 2009-08-20)

Audio
ID : 1
Format : MPEG Audio
Format version : Version 1
Format profile : Layer 3
Codec ID : 55
Codec ID/Hint : MP3
Duration : 1h 49mn
Bit rate mode : Constant
Bit rate : 256 Kbps
Channel(s) : 2 channels
Sampling rate : 48.0 KHz
Compression mode : Lossy
Stream size : 201 MiB (17%)
Alignment : Aligned on interleaves
Interleave, duration : 40 ms (1.00 video frame)
Interleave, preload duration : 408 ms


***Третий сезон закончен. Начало четвертого сезона в сентябре.



   Похожие торренты   Торрент   Размер 
В этой теме нет новых непрочитанных сообщений. Великолепный век / Muhtesem Yüzyil [03x64-87] (2012-2013) WEBDLRip | D

1 | 7

18.4 ГБ

В этой теме нет новых непрочитанных сообщений. Великолепный век / Muhtesem Yüzyil [03x64-109] (2012-2013) WEBDLRip | D

639 | 320

35.53 ГБ

В этой теме нет новых непрочитанных сообщений. Великолепный век / Muhtesem Yüzyil [03x64-65] (2012) SATRip | L

7 | 2

2.72 ГБ

В этой теме нет новых непрочитанных сообщений. Великолепный век / Muhtesem Yüzyil [04x01-33 (104-136)] (2013-2014) HDTVRip 1080p | L1

1 | 13

123.87 ГБ

В этой теме нет новых непрочитанных сообщений. Великолепный век / Muhtesem Yüzyil [04x1-19 (104-122)] (2013-2014) HDTVRip (1080p) | L1

0 | 2

69.51 ГБ

В этой теме нет новых непрочитанных сообщений. Великолепный век / Muhtesem Yüzyil [04x01-14 из 36 (104-117)] (2013-2014) HDTVRip 720p | L1

0 | 117

26.12 ГБ

В этой теме нет новых непрочитанных сообщений. Великолепный век / Muhtesem Yüzyil [04x1-21 (104-124)] (2013-2014) HDTVRip (1080p) | L1

0 | 2

77.8 ГБ




Вы не можете начинать темы
Вы не можете отвечать на сообщения
Вы не можете редактировать свои сообщения
Вы не можете удалять свои сообщения
Вы не можете добавлять вложения

Перейти:  
 Вход
ppkBB3cker v.2 © 2008-2014 @ PPK
[ Time : 0.026s | 16 Queries | GZIP : Off ]

cron