img image001 image001 image001 image001 image001 image001 image001 image001 image001 image001 image001 image001 image001 image001 image001

Planets Sun Sun Sun
Статистика раздачи
Автор: Снежана | Размер: 2.11 ГБ | Добавлен: 26 июл 2013
Раздают: 101    Качают: 63
Скачать торрент
Скачать торрент
Описание торрента

СообщениеДобавлено: 26 июл 2013 

#77

Информация о фильме
Название: Игра Престолов
Оригинальное название: Game of Thrones
Год выхода: 2011
Жанр: Фентези, драма, приключения
Режиссер: Тимоти Ван Паттен, Брайан Кирк, Даниэль Минахан, Алан Тейлор
В ролях: Шон Бин, Питер Динклэйдж, Марк Эдди, Николай Костер-Вальдау, Мишель Фэйрли, Лена Хиди, Эмилия Кларк, Иэн Глен, Эйдан Гиллен и др.

О фильме:
К концу подходит время благоденствия, и лето, длившееся несколько десятилетий, угасает. Вокруг средоточия власти Семи королевств, Железного трона, зреет заговор, и в это непростое время король решает искать поддержки у друга юности Эддарда Старка. В мире, где все — от короля до наемника — рвутся к власти, плетут интриги и готовы вонзить нож в спину, есть место и благородству, состраданию и любви. Между тем, никто не замечает пробуждение тьмы из легенд далеко на Севере — и лишь Стена защищает живых к югу от нее...



Страна: США
Студия: HBO
Продолжительность серии: ~55 мин.
Перевод: Профессиональный (дублированный) РЕН-ТВ

Файл
Кодек: H264 (AVC)
Качество: BDRip | КПК
Видео: AVC at 409 Кбит/сек, 640 x 352 (1.800) at 23.976 fps
Звук: AAC at 128 Кбит/сек, 2 канала, 48,0 КГц
Субтитры: Отсутствуют

Код:
Общее
Полное имя                               : Игра престолов Сезон 1 серия 01.mp4
Формат                                   : MPEG-4
Профиль формата                          : Base Media
Идентификатор кодека                     : isom
Размер файла                             : 237 Мбайт
Продолжительность                        : 1 ч. 1 м.
Общий поток                              : 538 Кбит/сек
Исполнитель                              : RG BrodimCom
Дата кодирования                         : UTC 2013-06-22 00:16:27
Дата пометки                             : UTC 2013-06-22 00:16:27
Программа кодирования                    : XviD4PSP 6.0 / 54.29.105

Видео
Идентификатор                            : 1
Формат                                   : AVC
Формат/Информация                        : Advanced Video Codec
Профиль формата                          : Main@L4.1
Параметр CABAC формата                   : Да
Параметр ReFrames формата                : 3 кадра
Идентификатор кодека                     : avc1
Идентификатор кодека/Информация          : Advanced Video Coding
Продолжительность                        : 1 ч. 1 м.
Битрейт                                  : 409 Кбит/сек
Ширина                                   : 640 пикселей
Высота                                   : 352 пикселя
Соотношение сторон                       : 16:9
Режим частоты кадров                     : Постоянный
Частота кадров                           : 23,976 кадра/сек
Цветовое пространство                    : YUV
Субдискретизация насыщенности            : 4:2:0
Битовая глубина                          : 8 бит
Тип развёртки                            : Прогрессивная
Бит/(Пиксели*Кадры)                      : 0.076
Размер потока                            : 178 Мбайт (75%)
Библиотека кодирования                   : x264 core 128 r2216M 198a7ea
Настройки программы                      : cabac=1 / ref=3 / deblock=1:0:0 / analyse=0x1:0x131 / me=hex / subme=7 / psy=1 / psy_rd=1.00:0.20 / mixed_ref=1 / me_range=16 / chroma_me=1 / trellis=1 / 8x8dct=0 / cqm=0 / deadzone=21,11 / fast_pskip=1 / chroma_qp_offset=-3 / threads=8 / lookahead_threads=1 / sliced_threads=0 / nr=0 / decimate=1 / interlaced=0 / bluray_compat=0 / constrained_intra=0 / bframes=3 / b_pyramid=0 / b_adapt=2 / b_bias=0 / direct=3 / weightb=1 / open_gop=0 / weightp=0 / keyint=230 / keyint_min=23 / scenecut=40 / intra_refresh=0 / rc_lookahead=40 / rc=cbr / mbtree=1 / bitrate=409 / ratetol=1.0 / qcomp=0.60 / qpmin=10 / qpmax=51 / qpstep=4 / vbv_maxrate=409 / vbv_bufsize=1835 / nal_hrd=none / ip_ratio=1.40 / aq=1:1.00
Дата кодирования                         : UTC 2013-06-22 00:16:27
Дата пометки                             : UTC 2013-06-22 00:16:27

Аудио
Идентификатор                            : 2
Формат                                   : AAC
Формат/Информация                        : Advanced Audio Codec
Профиль формата                          : LC
Идентификатор кодека                     : 40
Продолжительность                        : 1 ч. 1 м.
Вид битрейта                             : Постоянный
Битрейт                                  : 128 Кбит/сек
Каналы                                   : 2 канала
Расположение каналов                     : Front: L R
Частота                                  : 48,0 КГц
Метод сжатия                             : С потерями
Задержка видео                           : 42 мс.
Размер потока                            : 56,4 Мбайт (24%)
Язык                                     : Russian
Дата кодирования                         : UTC 2013-06-22 00:16:27
Дата пометки                             : UTC 2013-06-22 00:16:27 



   Похожие торренты   Торрент   Размер 
В этой теме нет новых непрочитанных сообщений. Игра престолов / Game of Thrones [S01] (2011) BDRip

125 | 52

10.82 ГБ

В этой теме нет новых непрочитанных сообщений. Игра Престолов / Game Of Thrones [S01] (2011) BDRip 1080p

74 | 70

70.96 ГБ

В этой теме нет новых непрочитанных сообщений. Игра престолов / Game of Thrones [S01] (2011) BDRip 720p от GYN

140 | 63

29.13 ГБ

В этой теме нет новых непрочитанных сообщений. Игра престолов / Game of Thrones [S01] (2011) BDRip от HELLYWOOD

1568 | 918

11.1 ГБ

В этой теме нет новых непрочитанных сообщений. Игра престолов / Game of Thrones [S01] (2011) BDRip от HQ-ViDEO

89 | 21

11.24 ГБ

В этой теме нет новых непрочитанных сообщений. Игра престолов / Game of Thrones [01х01-05 из 10] (2011) BDRip 1080p

8 | 5

22.57 ГБ

В этой теме нет новых непрочитанных сообщений. Игра престолов / Game of Thrones [S01-03] (2011-2013) BDRip-AVC | LostFilm

220 | 315

42.8 ГБ




Вы не можете начинать темы
Вы не можете отвечать на сообщения
Вы не можете редактировать свои сообщения
Вы не можете удалять свои сообщения
Вы не можете добавлять вложения

Перейти:  
Для Мосгорсуда, Роскомнадзора и рекламодателей: mosgorsud-torrent[собачка]yandex.ru
 Вход
ppkBB3cker v.2 © 2008-2014 @ PPK
[ Time : 0.052s | 17 Queries | GZIP : Off ]

Торрент трекер RUTOR.IN, Не можете зайти на rutor.org? Какой новый адрес рутор? Какое зеркало рутор? Не работает rutor.org и зеркала? Тогда наш торрент специально для вас. Rutor.in неофициальное зеркало rutor. В случае если у Вас заблокирован rutor или вдруг Вы не можете на него зайти, то Вы без труда сможете скачать бесплатно и без рекламы последние новинки кино, игр, сериалов и прочего у нас, на Rutor.in. Не нужно использовать прокси, чтобы зайти на рутор, достаточно воспользоваться нашим ресурсом. Все новые фильмы, игры, сериалы, книги и музыка за 2013 и 2014 годы через торрент бесплатно. Скачивайте фильмы в хорошем качестве, игры для пк, xbox, playstation без регистрации. У нас вы найдете новые Зарубежные сериалы и Русские сериалы 2013, 2014, 2015 годов. Оставайтесь с нами, качайте любимые фильмы, игры, сериалы, книги и музыку.
cron