img image001 image001 image001 image001 image001 image001 image001 image001 image001 image001 image001 image001 image001 image001 image001

Planets Sun Sun Sun
Статистика раздачи
Автор: Снежана | Размер: 3.29 ГБ | Добавлен: 25 июл 2013
Раздают: 118    Качают: 11
Скачать торрент
Скачать торрент
Описание торрента

СообщениеДобавлено: 25 июл 2013 

#77
Год выпуска: 2013
Производство: Россия, МАРС МЕДИА ЭНТЕРТЕЙНМЕНТ
Жанр: драма, военный
Продолжительность: 4 ~ 00:48:00
Субтитры: нет

Режиссёр: Константин Статский


В ролях: Александр Устюгов, Тимофей Трибунцев, Азамат Нигманов, Александр Ефремов, Сергей Ефремов, Поля Полякова, Анатолий Гущин, Виталий Котовицкий, Михаил Клименко, Юрий Вутто...


Описание: Великая Отечественная война. Во время отступления частей Красной Армии, шла переброска секретного оружия — гвардейских миномётов БМ-13, впоследствии названных Катюшами. В ходе операции одна машина затонула. Чтобы не допустить ее попадания в руки врага, срочно формируется и забрасывается за линию фронта отряд из нескольких мастеров спорта под командованием Александра Ермакова. Их цель — найти и уничтожить орудие…





Качество: DVDRip (DVD9 R5)
Формат: AVI

Видео: 720x400 (16:9), 25.000 fps, XViD ~ 2000 kbps avg, 0.278 bit/pixel
Аудио: 48 kHz, АС3 6 ch, 448 kbps, русский

Раздача от:
Общее
Полное имя : Privet.ot.Katyushi.2013.O.DVDRip_[Youtracker]_by_avproh1.avi
Формат : AVI
Формат/Информация : Audio Video Interleave
Размер файла : 845 Мбайт
Продолжительность : 48 м.
Общий поток : 2457 Кбит/сек
Программа кодирования : VirtualDubMod 1.5.10.3 | www.virtualdub-fr.org || (build 2550/release)
Библиотека кодирования : VirtualDubMod build 2550/release

Видео
Идентификатор : 0
Формат : MPEG-4 Visual
Профиль формата : Advanced Simple@L5
Параметр BVOP формата : 1
Параметр QPel формата : Нет
Параметр GMC формата : Без точки перехода
Параметр матрицы формата : Выборочная
Идентификатор кодека : XVID
Идентификатор кодека/Подсказка : XviD
Продолжительность : 48 м.
Битрейт : 1999 Кбит/сек
Ширина : 720 пикселей
Высота : 400 пикселей
Соотношение сторон : 16:9
Частота кадров : 25,000 кадров/сек
Цветовое пространство : YUV
Субдискретизация насыщенности : 4:2:0
Битовая глубина : 8 бит
Тип развёртки : Прогрессивная
Метод сжатия : С потерями
Бит/(Пиксели*Кадры) : 0.278
Размер потока : 687 Мбайт (81%)
Библиотека кодирования : XviD 65

Аудио
Идентификатор : 1
Формат : AC-3
Формат/Информация : Audio Coding 3
Расширение режима : CM (complete main)
Параметр Endianness формата : Big
Идентификатор кодека : 2000
Продолжительность : 48 м.
Вид битрейта : Постоянный
Битрейт : 448 Кбит/сек
Каналы : 6 каналов
Расположение каналов : Front: L C R, Side: L R, LFE
Частота : 48,0 КГц
Битовая глубина : 16 бит
Метод сжатия : С потерями
Размер потока : 154 Мбайт (18%)
Выравнивание : Разделение по промежуткам
Продолжительность промежутка : 40 мс. (1,00 видеокадр)
Время предзагрузки промежутка : 500 мс.






   Похожие торренты   Торрент   Размер 
В этой теме нет новых непрочитанных сообщений. Привет от Катюши [01-04 из 04] (2013) DVDRip-AVC от Youtracker | лицензия

21 | 9

3.29 ГБ

В этой теме нет новых непрочитанных сообщений. Привет от Катюши [01-04 из 04] (2013) DVD9 R5 от Youtracker | лицензия

4 | 2

7.7 ГБ

В этой теме нет новых непрочитанных сообщений. Привет от Катюши [01-04 из 04] (2013) DVDRip от Generalfilm | КПК

26 | 5

768.05 МБ

В этой теме нет новых непрочитанных сообщений. Привет от «Катюши» [01-04 из 04] (2013) HDTVRip от Files-x

455 | 25

2.15 ГБ

В этой теме нет новых непрочитанных сообщений. Привет от «Катюши» [01-04 из 04] (2013) HDTVRip 720p

32 | 10

7.23 ГБ

В этой теме нет новых непрочитанных сообщений. Привет от «Катюши» [01-04 из 04] (2013) HDTV (1080i) от Files-x

37 | 12

15.98 ГБ

В этой теме нет новых непрочитанных сообщений. Привет, дуралеи! (1996) DVDRip от Youtracker

9 | 6

2.19 ГБ




Вы не можете начинать темы
Вы не можете отвечать на сообщения
Вы не можете редактировать свои сообщения
Вы не можете удалять свои сообщения
Вы не можете добавлять вложения

Перейти:  
Для Мосгорсуда, Роскомнадзора и рекламодателей: mosgorsud-torrent[собачка]yandex.ru
 Вход
ppkBB3cker v.2 © 2008-2014 @ PPK
[ Time : 0.059s | 14 Queries | GZIP : Off ]

Торрент трекер RUTOR.IN, Не можете зайти на rutor.org? Какой новый адрес рутор? Какое зеркало рутор? Не работает rutor.org и зеркала? Тогда наш торрент специально для вас. Rutor.in неофициальное зеркало rutor. В случае если у Вас заблокирован rutor или вдруг Вы не можете на него зайти, то Вы без труда сможете скачать бесплатно и без рекламы последние новинки кино, игр, сериалов и прочего у нас, на Rutor.in. Не нужно использовать прокси, чтобы зайти на рутор, достаточно воспользоваться нашим ресурсом. Все новые фильмы, игры, сериалы, книги и музыка за 2013 и 2014 годы через торрент бесплатно. Скачивайте фильмы в хорошем качестве, игры для пк, xbox, playstation без регистрации. У нас вы найдете новые Зарубежные сериалы и Русские сериалы 2013, 2014, 2015 годов. Оставайтесь с нами, качайте любимые фильмы, игры, сериалы, книги и музыку.