img image001 image001 image001 image001 image001 image001 image001 image001 image001 image001 image001 image001 image001 image001 image001

Planets Sun Sun Sun
Статистика раздачи
Автор: Снежана | Размер: 3.29 ГБ | Добавлен: 25 июл 2013
Раздают: 21    Качают: 9
Скачать торрент
Скачать торрент
Описание торрента

СообщениеДобавлено: 25 июл 2013 

#77
Год выпуска: 2013
Производство: Россия, МАРС МЕДИА ЭНТЕРТЕЙНМЕНТ
Жанр: драма, военный
Продолжительность: 4 ~ 00:48:00
Субтитры: нет

Режиссёр: Константин Статский


В ролях: Александр Устюгов, Тимофей Трибунцев, Азамат Нигманов, Александр Ефремов, Сергей Ефремов, Поля Полякова, Анатолий Гущин, Виталий Котовицкий, Михаил Клименко, Юрий Вутто...


Описание: Великая Отечественная война. Во время отступления частей Красной Армии, шла переброска секретного оружия — гвардейских миномётов БМ-13, впоследствии названных Катюшами. В ходе операции одна машина затонула. Чтобы не допустить ее попадания в руки врага, срочно формируется и забрасывается за линию фронта отряд из нескольких мастеров спорта под командованием Александра Ермакова. Их цель — найти и уничтожить орудие…





Качество: DVDRip-AVC (DVD9 R5)
Формат: MKV

Видео: 720x576@1024x576 (16:9), 25.000 fps, H264 ~ 2006 kbps avg, 0.193 bit/pixel
Аудио: 48 kHz, АС3 6 ch, 448 kbps, русский

Раздача от:
Общее
Полное имя : Privet.ot.Katyushi.2013.O.DVDRip-AVC_[Youtracker]_by_avproh1.mkv
Формат : Matroska
Версия формата : Version 2
Размер файла : 845 Мбайт
Продолжительность : 48 м.
Общий поток : 2456 Кбит/сек
Дата кодирования : UTC 2013-06-26 00:31:45
Программа кодирования : mkvmerge v5.0.1 ('Es ist Sommer') built on Nov 6 2011 16:23:40
Библиотека кодирования : libebml v1.2.2 + libmatroska v1.3.0

Видео
Идентификатор : 1
Формат : AVC
Формат/Информация : Advanced Video Codec
Профиль формата : High@L4.1
Параметр CABAC формата : Да
Параметр ReFrames формата : 11 кадров
Идентификатор кодека : V_MPEG4/ISO/AVC
Продолжительность : 48 м.
Битрейт : 2006 Кбит/сек
Ширина : 720 пикселей
Высота : 576 пикселей
Соотношение сторон : 16:9
Режим частоты кадров : Постоянный
Частота кадров : 25,000 кадров/сек
Стандарт вещания : PAL
Цветовое пространство : YUV
Субдискретизация насыщенности : 4:2:0
Битовая глубина : 8 бит
Тип развёртки : Прогрессивная
Бит/(Пиксели*Кадры) : 0.193
Размер потока : 674 Мбайт (80%)
Библиотека кодирования : x264 core 130 r2273 b3065e6
Настройки программы : cabac=1 / ref=11 / deblock=1:-2:-1 / analyse=0x3:0x113 / me=umh / subme=9 / psy=1 / psy_rd=1.00:0.20 / mixed_ref=1 / me_range=32 / chroma_me=1 / trellis=1 / 8x8dct=1 / cqm=0 / deadzone=21,11 / fast_pskip=0 / chroma_qp_offset=-3 / threads=6 / lookahead_threads=1 / sliced_threads=0 / nr=0 / decimate=0 / interlaced=0 / bluray_compat=0 / constrained_intra=0 / bframes=8 / b_pyramid=2 / b_adapt=2 / b_bias=0 / direct=3 / weightb=1 / open_gop=0 / weightp=2 / keyint=250 / keyint_min=25 / scenecut=40 / intra_refresh=0 / rc_lookahead=60 / rc=2pass / mbtree=1 / bitrate=2006 / ratetol=1.0 / qcomp=0.60 / qpmin=0 / qpmax=69 / qpstep=4 / cplxblur=20.0 / qblur=0.5 / ip_ratio=1.40 / aq=1:1.00
Default : Да
Forced : Нет

Аудио
Идентификатор : 2
Формат : AC-3
Формат/Информация : Audio Coding 3
Расширение режима : CM (complete main)
Параметр Endianness формата : Big
Идентификатор кодека : A_AC3
Продолжительность : 48 м.
Вид битрейта : Постоянный
Битрейт : 448 Кбит/сек
Каналы : 6 каналов
Расположение каналов : Front: L C R, Side: L R, LFE
Частота : 48,0 КГц
Битовая глубина : 16 бит
Метод сжатия : С потерями
Размер потока : 154 Мбайт (18%)
Default : Да
Forced : Нет





   Похожие торренты   Торрент   Размер 
В этой теме нет новых непрочитанных сообщений. Привет от Катюши [01-04 из 04] (2013) DVDRip от Youtracker | лицензия

118 | 11

3.29 ГБ

В этой теме нет новых непрочитанных сообщений. Привет от Катюши [01-04 из 04] (2013) DVD9 R5 от Youtracker | лицензия

4 | 2

7.7 ГБ

В этой теме нет новых непрочитанных сообщений. Привет от Катюши [01-04 из 04] (2013) DVDRip от Generalfilm | КПК

26 | 5

768.05 МБ

В этой теме нет новых непрочитанных сообщений. Привет от Катюши [01-04 из 04] (2013) HDTVRip-AVC от Files-x

5 | 0

2.93 ГБ

В этой теме нет новых непрочитанных сообщений. Привет от «Катюши» [01-04 из 04] (2013) HDTVRip 720p

32 | 10

7.23 ГБ

В этой теме нет новых непрочитанных сообщений. Привет от «Катюши» [01-04 из 04] (2013) HDTVRip от Files-x

466 | 26

2.15 ГБ

В этой теме нет новых непрочитанных сообщений. Привет от Катюши [01-04 из 04] (2013) HDTV 1080i от MediaClub

0 | 0

13.18 ГБ




Вы не можете начинать темы
Вы не можете отвечать на сообщения
Вы не можете редактировать свои сообщения
Вы не можете удалять свои сообщения
Вы не можете добавлять вложения

Перейти:  
Для Мосгорсуда, Роскомнадзора и рекламодателей: mosgorsud-torrent[собачка]yandex.ru
 Вход
ppkBB3cker v.2 © 2008-2014 @ PPK
[ Time : 0.273s | 15 Queries | GZIP : Off ]

cron