img image001 image001 image001 image001 image001 image001 image001 image001 image001 image001 image001 image001 image001 image001 image001

Planets Sun Sun Sun
Статистика раздачи
Автор: Снежана | Размер: 7.59 ГБ | Добавлен: 25 июл 2013
Раздают: 276    Качают: 16
Скачать торрент
Скачать торрент
Описание торрента

СообщениеДобавлено: 25 июл 2013 

#77

Информация о фильме
Название: Прикуп
Оригинальное название: The Take
Год выхода: 2009
Жанр: Драма, криминал, триллер
Режиссер: Дэвид Друри
В ролях: Шон Эванс, Том Харди, Шарлотта Райли, Кирстон Вэрэйнг, Марго Лейкестер, Брайан Кокс, Джейн Вуд, Стив Николсон, Джон Эштон, Меган Джосса Аннетт Келли, Сара Стюарт, Макдара Джойс, Сэмми Уильямс, Дженни Кэвэна, Сэм Винчент, Николас Дэй, Гари Мерфи, Марк Хубермэн, Элли О’Кейн О’Рейли, Дэвид Скофилд, Эмма Пайк, Джэми МакКенна, Хейли Уордл, Имон Джехеган, Дебора Вайсман, Стефен Д’Арси, Эммет Кирван, Челси О’Тул, Ниам Шоу, Дин Бардини, Рита Эвелин Смит, Марк Фиш

О фильме:
Фредди Джексон только что вышел из тюрьмы. Он отсидел срок, наладил нужные связи и теперь готов вместе со своим преданным кузеном Джимми бросить вызов всему миру, не останавливаясь ни перед кем и ни перед чем.

Страна: Великобритания
Студия: Company Pictures, Element Pictures, Irish Film Board
Продолжительность: 02:53:05
Перевод: Авторский одноголосый закадровый, Ю.Сербин

Файл
Кодек: x264
Качество: BDRip 720p
Видео: 5000 Кбит/с, 1280x720, 25 кадр/с
Звук: Русский, английский (AC3, 6 ch, 640 Кбит/с)
Субтитры: Russian
Сохранены оригинальные чаптеры как на Blu-ray.
Перевод Юрия Сербина выполнен в рамках сервиса от HDCLUB "Озвучивание". Спонсоры: markinscor, tsar_obezian, sybir, Platov, Dervish, HPotter, olegsoleg, Loki1982, Faulenzer, denismgn1987, xerman13, tide, Pro_Rock_, Luka69, zeleniy, ochkarik1, oleg1980.
Общее
Уникальный идентификатор : 219497778793572670274790628555659419843 (0xA521BC0791D068C88AAE3340352420C3)
Полное имя : C:КиноThe.Take.2009.720p.BluRay.Rus.Eng.mkv
Формат : Matroska
Версия формата : Version 4 / Version 2
Размер файла : 7,59 Гбайт
Продолжительность : 2 ч. 53 м.
Общий поток : 6282 Кбит/сек
Название фильма : Created by DeathN2 for Кинозал.ТВ
Дата кодирования : UTC 2013-06-28 07:05:48
Программа кодирования : mkvmerge v6.2.0 ('Promised Land') built on Apr 28 2013 12:22:01
Библиотека кодирования : libebml v1.3.0 + libmatroska v1.4.0

Видео
Идентификатор : 1
Формат : AVC
Формат/Информация : Advanced Video Codec
Профиль формата : High@L4.1
Параметр CABAC формата : Да
Параметр ReFrames формата : 9 кадров
Идентификатор кодека : V_MPEG4/ISO/AVC
Продолжительность : 2 ч. 53 м.
Битрейт : 5000 Кбит/сек
Ширина : 1280 пикселей
Высота : 720 пикселей
Соотношение сторон : 16:9
Режим частоты кадров : Постоянный
Частота кадров : 25,000 кадров/сек
Цветовое пространство : YUV
Субдискретизация насыщенности : 4:2:0
Битовая глубина : 8 бит
Тип развёртки : Прогрессивная
Бит/(Пиксели*Кадры) : 0.217
Размер потока : 5,90 Гбайт (78%)
Заголовок : The Take (2009)
Библиотека кодирования : x264 core 124 r2197 69a0443
Настройки программы : cabac=1 / ref=9 / deblock=1:-3:-3 / analyse=0x3:0x113 / me=umh / subme=11 / psy=1 / psy_rd=1.10:0.00 / mixed_ref=1 / me_range=32 / chroma_me=1 / trellis=2 / 8x8dct=1 / cqm=0 / deadzone=21,11 / fast_pskip=0 / chroma_qp_offset=-2 / threads=18 / sliced_threads=0 / nr=0 / decimate=0 / interlaced=0 / bluray_compat=0 / constrained_intra=0 / bframes=8 / b_pyramid=2 / b_adapt=2 / b_bias=0 / direct=3 / weightb=1 / open_gop=0 / weightp=2 / keyint=240 / keyint_min=24 / scenecut=40 / intra_refresh=0 / rc_lookahead=240 / rc=2pass / mbtree=1 / bitrate=5000 / ratetol=1.0 / qcomp=0.70 / qpmin=0 / qpmax=69 / qpstep=4 / cplxblur=20.0 / qblur=0.5 / ip_ratio=1.40 / aq=1:1.00
Язык : English
Default : Да
Forced : Нет

Аудио #1
Идентификатор : 2
Формат : AC-3
Формат/Информация : Audio Coding 3
Расширение режима : CM (complete main)
Параметр Endianness формата : Big
Идентификатор кодека : A_AC3
Продолжительность : 2 ч. 53 м.
Вид битрейта : Постоянный
Битрейт : 640 Кбит/сек
Каналы : 6 каналов
Расположение каналов : Front: L C R, Side: L R, LFE
Частота : 48,0 КГц
Битовая глубина : 16 бит
Метод сжатия : С потерями
Размер потока : 792 Мбайт (10%)
Заголовок : Одноголосый закадровый (Ю.Сербин)
Язык : Russian
Default : Да
Forced : Нет

Аудио #2
Идентификатор : 3
Формат : AC-3
Формат/Информация : Audio Coding 3
Расширение режима : CM (complete main)
Параметр Endianness формата : Big
Идентификатор кодека : A_AC3
Продолжительность : 2 ч. 53 м.
Вид битрейта : Постоянный
Битрейт : 640 Кбит/сек
Каналы : 6 каналов
Расположение каналов : Front: L C R, Side: L R, LFE
Частота : 48,0 КГц
Битовая глубина : 16 бит
Метод сжатия : С потерями
Размер потока : 792 Мбайт (10%)
Язык : English
Default : Нет
Forced : Нет

Текст
Идентификатор : 4
Формат : UTF-8
Идентификатор кодека : S_TEXT/UTF8
Идентификатор кодека/Информация : UTF-8 Plain Text
Язык : Russian
Default : Нет
Forced : Нет

Меню
00:00:00.000 : en:00:00:00.000
00:13:57.040 : en:00:13:57.040
00:28:26.280 : en:00:28:26.280
00:41:09.040 : en:00:41:09.040
00:55:00.400 : en:00:55:00.400
01:10:10.680 : en:01:10:10.680
01:25:50.320 : en:01:25:50.320
01:36:07.280 : en:01:36:07.280
01:51:21.680 : en:01:51:21.680
02:08:08.680 : en:02:08:08.680
02:23:33.560 : en:02:23:33.560
02:39:44.120 : en:02:39:44.120






   Похожие торренты   Торрент   Размер 
В этой теме нет новых непрочитанных сообщений. Прикуп / The Take [TV Mini-Series] (2009) BDRip 720p от HDClub

52 | 4

9.7 ГБ

В этой теме нет новых непрочитанных сообщений. Прикуп / The Take [TV Mini-Series] (2009) BDRip-AVC от MediaClub | A

706 | 29

3.75 ГБ

В этой теме нет новых непрочитанных сообщений. Прикуп / The Take [TV Mini-Series] (2009) HDRip

150 | 21

2.87 ГБ

В этой теме нет новых непрочитанных сообщений. Морской волк / Sea Wolf [Mini-series] (2009) BDRip от HQ-ViDEO

13 | 3

3.4 ГБ

В этой теме нет новых непрочитанных сообщений. Прикуп / The Take (2009) BDRip 720p | L1

36 | 5

8.1 ГБ

В этой теме нет новых непрочитанных сообщений. Гордость и предубеждение / Pride and Prejudice [Mini-Series] (1995) BDRip от HQCLUB

220 | 40

6.54 ГБ

В этой теме нет новых непрочитанных сообщений. Заколдованное королевство / Железный человек / Tin Man [Mini-Series] (2007) BDRip от HQCLUB

86 | 197

4.36 ГБ




Вы не можете начинать темы
Вы не можете отвечать на сообщения
Вы не можете редактировать свои сообщения
Вы не можете удалять свои сообщения
Вы не можете добавлять вложения

Перейти:  
Для Мосгорсуда, Роскомнадзора и рекламодателей: mosgorsud-torrent[собачка]yandex.ru
 Вход
ppkBB3cker v.2 © 2008-2014 @ PPK
[ Time : 0.553s | 15 Queries | GZIP : Off ]

Торрент трекер RUTOR.IN, Не можете зайти на rutor.org? Какой новый адрес рутор? Какое зеркало рутор? Не работает rutor.org и зеркала? Тогда наш торрент специально для вас. Rutor.in неофициальное зеркало rutor. В случае если у Вас заблокирован rutor или вдруг Вы не можете на него зайти, то Вы без труда сможете скачать бесплатно и без рекламы последние новинки кино, игр, сериалов и прочего у нас, на Rutor.in. Не нужно использовать прокси, чтобы зайти на рутор, достаточно воспользоваться нашим ресурсом. Все новые фильмы, игры, сериалы, книги и музыка за 2013 и 2014 годы через торрент бесплатно. Скачивайте фильмы в хорошем качестве, игры для пк, xbox, playstation без регистрации. У нас вы найдете новые Зарубежные сериалы и Русские сериалы 2013, 2014, 2015 годов. Оставайтесь с нами, качайте любимые фильмы, игры, сериалы, книги и музыку.