img image001 image001 image001 image001 image001 image001 image001 image001 image001 image001 image001 image001 image001 image001 image001

Planets Sun Sun Sun
Статистика раздачи
Автор: Снежана | Размер: 4.6 ГБ | Добавлен: 26 июл 2013
Раздают: 6    Качают: 1
Скачать торрент
Скачать торрент
Описание торрента

СообщениеДобавлено: 26 июл 2013 

#77

Страна: США
Производство: Brillstein-Grey Entertainment, Buena Vista Television
Жанр: Боевик
Год выпуска: 1997–1998

Продолжительность: 13 х ~ 00:43:00
Перевод: Профессиональный двухголосый

Оригинальная аудиодорожка: Нет

Cубтитры: Нет
Режиссер: Майкл М. Робин
В ролях: Эрик Робертс, Зэк Гренье, Кристин Туччи, Энджи Хэрмон, Моррис Честнат, Д.Б. Суини, Гленн Моршауэр, Майкл Кавана, Джон Вентимилья, Лаура Диаз


Описание: Региональное отделение ФБР в Лос-Анджелесе. Самый знаменитый отдел особо тяжких преступлений на последнем этаже небоскреба. Гиблые, на первый взгляд, дела, и команда лучших в своем деле спецагентов, которая расследует их под руководством Джона Олански.
Тип релиза: VHSRip

Видео: 512x384 (1.33:1), 25 fps, XviD ~ 980 kbps avg, 0.20 bit/pixel
Аудио: 48 kHz, 2.0 ~ 192.00 kbps avg
Семпл
Общее
Полное имя : D:1АААC-16.FBI.(1997)C-16.FBI.1x01.Pilot.Part.1.VHSRip.Rus(ORT).avi
Формат : AVI
Формат/Информация : Audio Video Interleave
Размер файла : 363 Мбайт
Продолжительность : 42 м.
Общий поток : 1183 Кбит/сек
Программа кодирования : VirtualDubModRus 1.5.10.2 (build 2542/release)
Библиотека кодирования : VirtualDubMod build 2542/release

Видео
Идентификатор : 0
Формат : MPEG-4 Visual
Профиль формата : Advanced Simple@L5
Параметр BVOP формата : 2
Параметр QPel формата : Нет
Параметр GMC формата : Без точки перехода
Параметр матрицы формата : Default (H.263)
Идентификатор кодека : XVID
Идентификатор кодека/Подсказка : XviD
Продолжительность : 42 м.
Битрейт : 981 Кбит/сек
Ширина : 512 пикселей
Высота : 384 пикселя
Соотношение сторон : 4:3
Частота кадров : 25,000 кадров/сек
Цветовое пространство : YUV
Субдискретизация насыщенности : 4:2:0
Битовая глубина : 8 бит
Тип развёртки : Прогрессивная
Метод сжатия : С потерями
Бит/(Пиксели*Кадры) : 0.200
Размер потока : 301 Мбайт (83%)
Библиотека кодирования : XviD 1.2.0.dev47 (UTC 2006-11-01)

Аудио
Идентификатор : 1
Формат : MPEG Audio
Версия формата : Version 1
Профиль формата : Layer 3
Режим : Joint stereo
Идентификатор кодека : 55
Идентификатор кодека/Подсказка : MP3
Продолжительность : 42 м.
Вид битрейта : Постоянный
Битрейт : 192 Кбит/сек
Каналы : 2 канала
Частота : 48,0 КГц
Метод сжатия : С потерями
Размер потока : 59,0 Мбайт (16%)
Выравнивание : Соединение по промежуткам
Продолжительность промежутка : 40 мс. (1,00 видеокадр)
Время предзагрузки промежутка : 504 мс.






   Похожие торренты   Торрент   Размер 
В этой теме нет новых непрочитанных сообщений. Формула 1. Сезон 1997. Этапы 7-17 (1997 ) VHSRip

22 | 18

11.64 ГБ

В этой теме нет новых непрочитанных сообщений. Формула 1. Сезон 1998. Все этапы (1998) VHSRip

8 | 37

21.51 ГБ

В этой теме нет новых непрочитанных сообщений. Убойный отдел: Жизнь на улице / Homicide: Life on the street [S05] (1996-1997) DVDRip

14 | 4

8.4 ГБ

В этой теме нет новых непрочитанных сообщений. Убойный отдел: Жизнь на улице / Homicide: Life on the street [06х08-12 из 23] (1998) DVDRip | Sub

0 | 1

1.71 ГБ

В этой теме нет новых непрочитанных сообщений. Убойный отдел: Жизнь на улице / Homicide: Life on the street [06х01-16 из 23] (1998) DVDRip

7 | 8

5.52 ГБ

В этой теме нет новых непрочитанных сообщений. Убойный отдел: Жизнь на улице / Homicide: Life on the street [06х01-07 из 23] (1998) DVDRip

1 | 1

2.44 ГБ

В этой теме нет новых непрочитанных сообщений. Тринадцатый отдел / Отдел 13 / Diamant 13 (2009) HDRip l Лицензия

1 | 2

1.37 ГБ




Вы не можете начинать темы
Вы не можете отвечать на сообщения
Вы не можете редактировать свои сообщения
Вы не можете удалять свои сообщения
Вы не можете добавлять вложения

Перейти:  
Для Мосгорсуда, Роскомнадзора и рекламодателей: mosgorsud-torrent[собачка]yandex.ru
 Вход
ppkBB3cker v.2 © 2008-2014 @ PPK
[ Time : 0.086s | 16 Queries | GZIP : Off ]

Торрент трекер RUTOR.IN, Не можете зайти на rutor.org? Какой новый адрес рутор? Какое зеркало рутор? Не работает rutor.org и зеркала? Тогда наш торрент специально для вас. Rutor.in неофициальное зеркало rutor. В случае если у Вас заблокирован rutor или вдруг Вы не можете на него зайти, то Вы без труда сможете скачать бесплатно и без рекламы последние новинки кино, игр, сериалов и прочего у нас, на Rutor.in. Не нужно использовать прокси, чтобы зайти на рутор, достаточно воспользоваться нашим ресурсом. Все новые фильмы, игры, сериалы, книги и музыка за 2013 и 2014 годы через торрент бесплатно. Скачивайте фильмы в хорошем качестве, игры для пк, xbox, playstation без регистрации. У нас вы найдете новые Зарубежные сериалы и Русские сериалы 2013, 2014, 2015 годов. Оставайтесь с нами, качайте любимые фильмы, игры, сериалы, книги и музыку.
cron