img image001 image001 image001 image001 image001 image001 image001 image001 image001 image001 image001 image001 image001 image001 image001

Planets Sun Sun Sun
Статистика раздачи
Автор: Снежана | Размер: 16.03 ГБ | Добавлен: 25 июл 2013
Раздают: 96    Качают: 11
Скачать торрент
Скачать торрент
Описание торрента

СообщениеДобавлено: 25 июл 2013 

#77

Информация о фильме
Название: Белая гвардия
Год выхода: 2012
Жанр: Драма, исторический
Режиссер: Сергей Снежкин
В ролях: Константин Хабенский, Ксения Раппопорт, Федор Бондарчук, Алексей Серебряков, Сергей Гармаш, Михаил Пореченков, Евгений Стычкин, Евгений Дятлов, Сергей Шакуров, Екатерина Вилкова, Юрий Стоянов, Алексей Гуськов, Ирина Скобцева, Ксения Кутепова, Максим Леонидов, Владимир Вдовиченков, Евгения Добровольская, Игорь Верник, Артур Смольянинов, Анна Банщикова, Николай Ефремов, Артур Ваха, Янина Студилина, Игорь Черневич, Сергей Брюн, Юрий Ицков, Сергей Барковский, Олег Волку, Михаил Вассербаум, Иван Краско, Мария Луговая

О фильме:
1918 год. Киев. После ухода немецких войск, которые оккупировали всю территорию Украины, в Киев входят войска Петлюры. На фоне событий кровавого 1918 года разворачивается печальная, трагическая история семьи Турбиных. Алексей Турбин - военный медик, был одним из тех офицеров, который после Великой октябрьской революции 1917 года должен был сделать свой непростой выбор - бороться против большевиков или оставить военную службу и зажить обычной гражданской жизнью. У него за плечами три года участия в первой мировой войне. Алексею Турбину приходится делать свой выбор. Его сестра Елена и младший брат Николка поневоле оказываются вовлеченными в происходящие события, как военной, так и политической жизни.


Страна: Россия
Студия: Нон-стоп Продакшн, Твин Медиа
Продолжительность: 4 х ~ 01:33:00
Перевод: Не требуется

Файл
Кодек: H.264
Качество: BDRip 720p
Видео: MPEG-4 AVC, ~ 5550 Кбит/с, 1280x720, 25 кадр/с
Звук: AC3, 6 ch, 448 Кбит/с

Семпл







Полное имя : Belaya.gvardiya.2012.x264.BDRip.(720p)Belaya.gvardiya.EP2.2012.x264.BDRip.(720p).mkv
Формат : Matroska
Версия формата : Version 1
Размер файла : 4,46 Гбайт
Продолжительность : 1 ч. 40 м.
Общий поток : 6323 Кбит/сек
Название фильма : Belaya Gvardiya EP2 (2012)
Дата кодирования : UTC 2013-07-03 02:06:53
Программа кодирования : mkvmerge v2.1.0 ('Another Place To Fall') built on Aug 19 2007 13:40:07
Библиотека кодирования : libebml v0.7.7 + libmatroska v0.8.1

Видео
Идентификатор : 1
Формат : AVC
Формат/Информация : Advanced Video Codec
Профиль формата : High@L4.1
Параметр CABAC формата : Да
Параметр ReFrames формата : 8 кадров
Идентификатор кодека : V_MPEG4/ISO/AVC
Продолжительность : 1 ч. 40 м.
Битрейт : 5749 Кбит/сек
Ширина : 1280 пикселей
Высота : 720 пикселей
Соотношение сторон : 16:9
Частота кадров : 25,000 кадров/сек
Цветовое пространство : YUV
Субдискретизация насыщенности : 4:2:0
Битовая глубина : 8 бит
Тип развёртки : Прогрессивная
Бит/(Пиксели*Кадры) : 0.250
Размер потока : 4,06 Гбайт (91%)
Заголовок : Belaya Gvardiya EP2 (2012)
Библиотека кодирования : x264 core 122 r2184 5c85e0a
Настройки программы : cabac=1 / ref=8 / deblock=1:-3:-3 / analyse=0x3:0x113 / me=umh / subme=10 / psy=1 / psy_rd=1.00:0.00 / mixed_ref=1 / me_range=32 / chroma_me=1 / trellis=2 / 8x8dct=1 / cqm=0 / deadzone=21,11 / fast_pskip=0 / chroma_qp_offset=-2 / threads=18 / sliced_threads=0 / nr=0 / decimate=0 / interlaced=0 / bluray_compat=0 / constrained_intra=0 / bframes=8 / b_pyramid=2 / b_adapt=2 / b_bias=0 / direct=3 / weightb=1 / open_gop=0 / weightp=2 / keyint=250 / keyint_min=23 / scenecut=40 / intra_refresh=0 / rc_lookahead=60 / rc=crf / mbtree=0 / crf=18.0 / qcomp=0.60 / qpmin=0 / qpmax=69 / qpstep=4 / vbv_maxrate=50000 / vbv_bufsize=62500 / crf_max=0.0 / nal_hrd=none / ip_ratio=1.40 / pb_ratio=1.30 / aq=2:0.80
Язык : Russian
Default : Да
Forced : Нет
Коэффициенты матрицы : BT.709-5, BT.1361, IEC 61966-2-4 709, SMPTE RP177

Аудио
Идентификатор : 2
Формат : AC-3
Формат/Информация : Audio Coding 3
Расширение режима : CM (complete main)
Параметр Endianness формата : Big
Идентификатор кодека : A_AC3
Продолжительность : 1 ч. 40 м.
Вид битрейта : Постоянный
Битрейт : 448 Кбит/сек
Каналы : 6 каналов
Расположение каналов : Front: L C R, Side: L R, LFE
Частота : 48,0 КГц
Битовая глубина : 16 бит
Метод сжатия : С потерями
Размер потока : 324 Мбайт (7%)
Язык : Russian
Default : Да
Forced : Нет



   Похожие торренты   Торрент   Размер 
В этой теме нет новых непрочитанных сообщений. Белая гвардия [01-04 из 04] (2012) BDRip-AVC от R.G. AVI | AVC

27 | 8

6.68 ГБ

В этой теме нет новых непрочитанных сообщений. Белая гвардия [01-04 из 04] (2012) BDRip

150 | 24

5.6 ГБ

В этой теме нет новых непрочитанных сообщений. Белая гвардия [01-04 из 04] (2012) BDRip-AVC от New-Team

112 | 31

7.95 ГБ

В этой теме нет новых непрочитанных сообщений. Белая гвардия [01-04 из 04] (2012) BDRip от CinemaClub

314 | 21

2.73 ГБ

В этой теме нет новых непрочитанных сообщений. Белая гвардия [01-04 из 04] (2012) BDRip 1080p

37 | 8

26.46 ГБ

В этой теме нет новых непрочитанных сообщений. Белая гвардия [01-04 из 04] (2012) BDRip от New-Team

255 | 82

4.38 ГБ

В этой теме нет новых непрочитанных сообщений. Белая гвардия. Предисловие (2012) DVB

0 | 2

3.19 ГБ




Вы не можете начинать темы
Вы не можете отвечать на сообщения
Вы не можете редактировать свои сообщения
Вы не можете удалять свои сообщения
Вы не можете добавлять вложения

Перейти:  
Для Мосгорсуда, Роскомнадзора и рекламодателей: mosgorsud-torrent[собачка]yandex.ru
 Вход
ppkBB3cker v.2 © 2008-2014 @ PPK
[ Time : 0.527s | 14 Queries | GZIP : Off ]

Торрент трекер RUTOR.IN, Не можете зайти на rutor.org? Какой новый адрес рутор? Какое зеркало рутор? Не работает rutor.org и зеркала? Тогда наш торрент специально для вас. Rutor.in неофициальное зеркало rutor. В случае если у Вас заблокирован rutor или вдруг Вы не можете на него зайти, то Вы без труда сможете скачать бесплатно и без рекламы последние новинки кино, игр, сериалов и прочего у нас, на Rutor.in. Не нужно использовать прокси, чтобы зайти на рутор, достаточно воспользоваться нашим ресурсом. Все новые фильмы, игры, сериалы, книги и музыка за 2013 и 2014 годы через торрент бесплатно. Скачивайте фильмы в хорошем качестве, игры для пк, xbox, playstation без регистрации. У нас вы найдете новые Зарубежные сериалы и Русские сериалы 2013, 2014, 2015 годов. Оставайтесь с нами, качайте любимые фильмы, игры, сериалы, книги и музыку.