img image001 image001 image001 image001 image001 image001 image001 image001 image001 image001 image001 image001 image001 image001 image001

Planets Sun Sun Sun
Статистика раздачи
Автор: Снежана | Размер: 32.39 ГБ | Добавлен: 25 июл 2013
Раздают: 0    Качают: 6
Скачать торрент
Скачать торрент
Описание торрента

СообщениеДобавлено: 25 июл 2013 

#77

Название: Мыслить как преступник
Оригинальное название: Criminal Minds
Год выпуска: 2012
Жанр: Триллер, драма, криминал, детектив
Режиссер: Джефф Дэвис
В ролях: Томас Гибсон, Джо Мантенья, Шемар Мур, Пейджет Брюстер, Эй Джей Кук, Мэттью Грэй Габлер, Кирстен Вангснесс

Описание: Главные герои сериала - команда лучших следователей ФБР, способных понять и проанализировать ход мыслей самых изощрённых преступников, предугадать их дальнейшие поступки и тем самым предотвратить ужасные преступления. Когда обычные криминалисты заходят в тупик, на помощь им приходят специалисты по поведенческому анализу. Вместо тщательного изучения улик они пытаются найти и понять мотивы преступления, досконально вникая в каждый шаг преступника и пытаясь мыслить, как он. Работая на месте преступления, эти профессионалы словно расследуют его изнутри, стараясь понять мысли преступника, какими бы тёмными они ни были.



Страна: США, Канада
Продолжительность: 24 x ~ 00:40:00
Перевод: Профессиональный (многоголосый, закадровый) - Fox Crime
Субтитры: Нет

Озвучка: Fox Crime
Подготовка видео: Baggio
Работа со звуком: Baggio



Качество: WEB-DL 720p
Формат: MKV
Видео: H.264, 1280x720 (16:9), 23.976 fps, 3933 Kbps, 0.178 bit/pixel
Аудио rus: МР3, 48.0 KHz, 2 channels, 192 Kbps
Аудио eng: АС3, 48.0 KHz, 6 channels, 384 Kbps

01. Глушитель / The Silencer
02. Пакт / The Pact
03. В зазеркалье / Through the Looking Glass
04. Комплекс Бога / God Complex
05. Хорошая земля / The Good Earth
06. Ученичество / The Apprenticeship
07. Павшие / The Fallen
08. Колеса у автобуса / The Wheels on the Bus
09. Волшебный свет / Magnificent Light
10. Урок / The Lesson
11. Неизменность / Perennials
12. Цугцванг / The End of M
General
Unique ID : 200375894560149676636193316761200747207 (0x96BEFE5913357ED28FA0D521606FE2C7)
Complete name : F:СериалыCriminal Minds (Мыслить как преступник)Criminal Minds s08 720pCriminal.Minds.S08E07.rus.eng.720p.WEB-DL.mkv
Format : Matroska
Format version : Version 4 / Version 2
File size : 1.10 GiB
Duration : 42mn 53s
Overall bit rate : 3 672 Kbps
Encoded date : UTC 2010-02-22 21:41:31
Writing application : mkvmerge v5.9.0 ('On The Loose') built on Dec 9 2012 15:37:01
Writing library : libebml v1.3.0 + libmatroska v1.4.0

Video
ID : 1
Format : AVC
Format/Info : Advanced Video Codec
Format profile : High@L3.1
Format settings, CABAC : No
Format settings, ReFrames : 2 frames
Codec ID : V_MPEG4/ISO/AVC
Duration : 42mn 53s
Bit rate : 3 023 Kbps
Width : 1 280 pixels
Height : 720 pixels
Display aspect ratio : 16:9
Frame rate mode : Constant
Frame rate : 23.976 fps
Color space : YUV
Chroma subsampling : 4:2:0
Bit depth : 8 bits
Scan type : Progressive
Bits/(Pixel*Frame) : 0.137
Stream size : 927 MiB (82%)
Title : Criminal Minds - Season 8, Episode 7: The Fallen
Language : English
Default : Yes
Forced : No
Color primaries : BT.709
Transfer characteristics : BT.709
Matrix coefficients : BT.709

Audio #1
ID : 2
Format : MPEG Audio
Format version : Version 1
Format profile : Layer 3
Mode : Joint stereo
Mode extension : MS Stereo
Codec ID : A_MPEG/L3
Codec ID/Hint : MP3
Duration : 42mn 53s
Bit rate mode : Constant
Bit rate : 192 Kbps
Channel(s) : 2 channels
Sampling rate : 48.0 KHz
Compression mode : Lossy
Stream size : 58.9 MiB (5%)
Language : Russian
Default : Yes
Forced : Yes

Audio #2
ID : 3
Format : AC-3
Format/Info : Audio Coding 3
Mode extension : CM (complete main)
Format settings, Endianness : Big
Codec ID : A_AC3
Duration : 42mn 53s
Bit rate mode : Constant
Bit rate : 384 Kbps
Channel(s) : 6 channels
Channel positions : Front: L C R, Side: L R, LFE
Sampling rate : 48.0 KHz
Bit depth : 16 bits
Compression mode : Lossy
Stream size : 118 MiB (10%)
Title : Dolby Digital 5.1 @ 384 kbps
Language : English
Default : No
Forced : No



Релиз от:



   Похожие торренты   Торрент   Размер 
В этой теме нет новых непрочитанных сообщений. Мыслить как преступник / Criminal Minds [S07] (2011-2012) WEB-DL 720p | Fox Crime

73 | 51

33.44 ГБ

В этой теме нет новых непрочитанных сообщений. Мыслить как преступник / Criminal Minds [S08] (2012) WEB-DLRip | Fox Crime

32 | 13

11.72 ГБ

В этой теме нет новых непрочитанных сообщений. Мыслить как преступник / Criminal Minds [S07] (2011-2012) WEB-DLRip | Fox Crime

97 | 30

11.72 ГБ

В этой теме нет новых непрочитанных сообщений. Мыслить как преступник / Criminal Minds [S06] (2010-2011) WEB-DL 720p | Fox Crime

47 | 33

33.21 ГБ

В этой теме нет новых непрочитанных сообщений. Мыслить как преступник / Criminal Minds [S03] (2007-2008) WEB-DL 720p | Fox Crime, ДТВ

53 | 27

29.15 ГБ

В этой теме нет новых непрочитанных сообщений. Мыслить как преступник / Criminal Minds [S05] (2009-2010) WEB-DL 720p | Fox Crime

73 | 59

31.62 ГБ

В этой теме нет новых непрочитанных сообщений. Мыслить как преступник / Criminal Minds [S04] (2008-2009) WEB-DL 720p | Fox Crime

48 | 69

36.3 ГБ




Вы не можете начинать темы
Вы не можете отвечать на сообщения
Вы не можете редактировать свои сообщения
Вы не можете удалять свои сообщения
Вы не можете добавлять вложения

Перейти:  
Для Мосгорсуда, Роскомнадзора и рекламодателей: mosgorsud-torrent[собачка]yandex.ru
 Вход
ppkBB3cker v.2 © 2008-2014 @ PPK
[ Time : 0.045s | 15 Queries | GZIP : Off ]

cron