img image001 image001 image001 image001 image001 image001 image001 image001 image001 image001 image001 image001 image001 image001 image001

Planets Sun Sun Sun
Статистика раздачи
Автор: Снежана | Размер: 172.04 ГБ | Добавлен: 25 июл 2013
Раздают: 20    Качают: 74
Скачать торрент
Скачать торрент
Описание торрента

СообщениеДобавлено: 25 июл 2013 

#77

Информация о фильме
Название: На Краю Вселенной / Далеко во Вселенной
Оригинальное название: Farscape
Год выхода: 1999-2004
Жанр: Фантастика, Фэнтези, Приключения
Режиссер: Тони Тилс, Роуэн Вудс, Эндрю Проуз, Йен Уотсон, Питер Андрикидис, Джофф Беннетт, Катрин Миллар, Пино Амента, Йен Бэрри
В ролях: Бен Браудер, Клаудия Блэк, Вирджиния Хей, Энтони Симко, Джонатан Харди, Гиги Эджли, Лэни Джон Тупу, Пол Годдард, Уэйн Пигрэм, Тэмми Макинтош, Рейли Хилл, Мелисса Джэффер

О фильме:
Астронавт Джон Крайтон, испытывая модуль собственной разработки, проваливается в червоточину и, оказавшись на другом конце Вселенной, попадает в самую гущу космической битвы. Его модуль «Farscape-1» затягивает на борт Мойи, огромного био-механоидного живого корабля. Здесь Крайтон встречается с представителями других рас, оказавшимися беглыми заключенными, отчаянно пытающимися вырваться из лап агрессивных гомо сапиенс, называющих себя Миротворцами. Теперь товарищами Джона по путешествию становятся Ка Д’Арго - свирепый Лаксианский воин; Райджел XVI - похожий на слизняка Доминар Хайнирской Империи и Па У Зото Заан, безмятежная Дельвийская жрица. А камеру с ним делит товарищ по заключению Айрин Сун - захваченный офицер Миротворцев…

«На краю́ Вселе́нной» (англ. Farscape) — австралийско-американский фантастический телевизионный сериал. Телесериал снимался в Австралии при участии телекомпаний The Jim Henson Company и Hallmark Entertainment по заказу телеканала Sci Fi Channel. Пилотная серия вышла на экраны 19 марта 1999 года. Не является научной фантастикой из-за противоречий, а также множества физических законов, действующих в рамках отдельных эпизодов — в научной фантастике изначально заданная картина мира логична и внутренне непротиворечива.

В октябре 1999 года трансляция телесериала началась в России на телеканале ТНТ. В эфир вышло только три сезона телесериала. В 2005 году русским кабельным телеканалом Hallmark также был показан фильм «На краю Вселенной: Битва за мир».В данный момент сериал транслируется на русскоязычном канале AXN Sci-Fi.


Страна: Австралия, США
Студия: Студия-изготовитель, если известна
Продолжительность: 88 x ~00:50:00 сек.
Перевод: Профессиональный (многоголосый, закадровый)

Файл
Исходник: Blu-Ray 1080i
Кодек: H.264
Качество: BDRip 720p
Видео: MPEG-4 AVC, 960:720p (1-3 сезон) 1280:720p (4 сезон), 23,976 fps, 4729 kbps, 0.279 bit/pixel
Звук:
Аудио 1: AC-3 5.1 / 48 kHz / 448 kbps, [s02e07-10, 14-18, s03]: AC-3 2.0 / 48 kHz / 192 kbps
Аудио 2: AC-3 5.1 / 48 kHz / 448 kbps
Субтитры: Русские (Проект "Русский Фарскейп" / 1, 2, 4 сезон), Английские

Семпл

На Краю Вселенной HDRip - http://rutor.org/torrent/291708

Original Score к На Краю Вселенной: http://rutor.org/torrent/291711/ Lossless, http://rutor.org/torrent/291711/ - MP3


MI
Уникальный идентификатор : 241347990729326719475821443198498745108 (0xB591EEA70A46EB998F55C0DDA999AB14)
Полное имя : C:FarscapeSeason.01Farscape.s01e01 Premiere.mkv
Формат : Matroska
Версия формата : Version 2
Размер файла : 1,97 Гбайт
Продолжительность : 50 м.
Общий поток : 5625 Кбит/сек
Название фильма : Farscape.s01e01 Premiere / Премьера
Дата кодирования : UTC 2011-11-18 06:47:44
Программа кодирования : mkvmerge v4.9.1 ('Ich will') сборка от Jul 11 2011 23:53:15
Библиотека кодирования : libebml v1.2.1 + libmatroska v1.1.1

Видео
Идентификатор : 1
Формат : AVC
Формат/Информация : Advanced Video Codec
Профиль формата : High@L3.1
Параметр CABAC формата : Да
Параметр ReFrames формата : 5 кадров
Параметры GOP формата : M=1, N=16
Режим смешивания : Header stripping
Идентификатор кодека : V_MPEG4/ISO/AVC
Продолжительность : 50 м.
Битрейт : 4729 Кбит/сек
Ширина : 960 пикс.
Высота : 720 пикс.
Соотношение сторон : 4:3
Частота кадров : 23,976 кадр/сек
Цветовое пространство : YUV
Подвыборка цветности : 4:2:0
Битовая глубина : 8 бит
Тип развёртки : Прогрессивная
Бит/(Пиксели*Кадры) : 0.285
Размер потока : 1,62 Гбайт (82%)
Библиотека кодирования : x264 core 119 r2106 07efeb4
Настройки программы : cabac=1 / ref=5 / deblock=1:0:0 / analyse=0x3:0x113 / me=umh / subme=7 / psy=1 / psy_rd=1.00:0.00 / mixed_ref=1 / me_range=16 / chroma_me=1 / trellis=1 / 8x8dct=1 / cqm=0 / deadzone=21,11 / fast_pskip=0 / chroma_qp_offset=-2 / threads=12 / sliced_threads=0 / nr=0 / decimate=1 / interlaced=0 / bluray_compat=0 / constrained_intra=0 / bframes=3 / b_pyramid=2 / b_adapt=1 / b_bias=0 / direct=1 / weightb=1 / open_gop=0 / weightp=2 / keyint=250 / keyint_min=23 / scenecut=40 / intra_refresh=0 / rc_lookahead=40 / rc=2pass / mbtree=1 / bitrate=4729 / ratetol=1.0 / qcomp=0.60 / qpmin=0 / qpmax=69 / qpstep=4 / cplxblur=20.0 / qblur=0.5 / ip_ratio=1.40 / aq=1:1.00

Аудио #1
Идентификатор : 2
Формат : AC-3
Формат/Информация : Audio Coding 3
Расширение режима : CM (complete main)
Режим смешивания : Header stripping
Идентификатор кодека : A_AC3
Продолжительность : 50 м.
Вид битрейта : Постоянный
Битрейт : 448 Кбит/сек
Каналы : 6 каналов
Расположение каналов : Front: L C R, Side: L R, LFE
Частота : 48,0 КГц
Битовая глубина : 16 бит
Метод сжатия : С потерями
Размер потока : 161 Мбайт (8%)
Язык : Russian

Аудио #2
Идентификатор : 3
Формат : AC-3
Формат/Информация : Audio Coding 3
Расширение режима : CM (complete main)
Режим смешивания : Header stripping
Идентификатор кодека : A_AC3
Продолжительность : 50 м.
Вид битрейта : Постоянный
Битрейт : 448 Кбит/сек
Каналы : 6 каналов
Расположение каналов : Front: L C R, Side: L R, LFE
Частота : 48,0 КГц
Битовая глубина : 16 бит
Метод сжатия : С потерями
Размер потока : 161 Мбайт (8%)
Язык : English

Текст #1
Идентификатор : 4
Формат : ASS
Идентификатор кодека : S_TEXT/ASS
Идентификатор кодека/Информация : Advanced Sub Station Alpha
Метод сжатия : Без потерь
Язык : Russian

Текст #2
Идентификатор : 5
Формат : ASS
Идентификатор кодека : S_TEXT/ASS
Идентификатор кодека/Информация : Advanced Sub Station Alpha
Метод сжатия : Без потерь
Язык : Russian

Текст #3
Идентификатор : 6
Формат : ASS
Идентификатор кодека : S_TEXT/ASS
Идентификатор кодека/Информация : Advanced Sub Station Alpha
Метод сжатия : Без потерь
Язык : English


Релиз: UnSlayeR



   Похожие торренты   Торрент   Размер 
В этой теме нет новых непрочитанных сообщений. На Краю Вселенной / Далеко во Вселенной / Farscape [S01-04] (1999-2004) BDRip | P

289 | 89

63.73 ГБ

В этой теме нет новых непрочитанных сообщений. На Краю Вселенной / Далеко во Вселенной / Farscape [S01-04 + Фильм] (1999-2004) HDRip от Generalfilm | КПК | P

4 | 74

19 ГБ

В этой теме нет новых непрочитанных сообщений. На Краю Вселенной / Далеко во Вселенной / Farscape [S01] (1999) DVD | P (ТНТ)

25 | 57

51.63 ГБ

В этой теме нет новых непрочитанных сообщений. На краю вселенной / Farscape + The Peacekeeper Wars [S01-04] (1999-2004) BDRip | P, P2

24 | 32

36.48 ГБ

В этой теме нет новых непрочитанных сообщений. На краю вселенной / Farscape [S4] (1999-2004) DVDRip

3 | 5

7.76 ГБ

В этой теме нет новых непрочитанных сообщений. На краю вселенной / Farscape [S01-04] + Bonus (1999-2004) DVDRip

13 | 76

33.15 ГБ

В этой теме нет новых непрочитанных сообщений. OST - На Краю Вселенной / Далеко во Вселенной / Farscape (2000-2008) FLAC

1 | 3

1.67 ГБ




Вы не можете начинать темы
Вы не можете отвечать на сообщения
Вы не можете редактировать свои сообщения
Вы не можете удалять свои сообщения
Вы не можете добавлять вложения

Перейти:  
Для Мосгорсуда, Роскомнадзора и рекламодателей: mosgorsud-torrent[собачка]yandex.ru
 Вход
ppkBB3cker v.2 © 2008-2014 @ PPK
[ Time : 0.560s | 15 Queries | GZIP : Off ]

Торрент трекер RUTOR.IN, Не можете зайти на rutor.org? Какой новый адрес рутор? Какое зеркало рутор? Не работает rutor.org и зеркала? Тогда наш торрент специально для вас. Rutor.in неофициальное зеркало rutor. В случае если у Вас заблокирован rutor или вдруг Вы не можете на него зайти, то Вы без труда сможете скачать бесплатно и без рекламы последние новинки кино, игр, сериалов и прочего у нас, на Rutor.in. Не нужно использовать прокси, чтобы зайти на рутор, достаточно воспользоваться нашим ресурсом. Все новые фильмы, игры, сериалы, книги и музыка за 2013 и 2014 годы через торрент бесплатно. Скачивайте фильмы в хорошем качестве, игры для пк, xbox, playstation без регистрации. У нас вы найдете новые Зарубежные сериалы и Русские сериалы 2013, 2014, 2015 годов. Оставайтесь с нами, качайте любимые фильмы, игры, сериалы, книги и музыку.