img image001 image001 image001 image001 image001 image001 image001 image001 image001 image001 image001 image001 image001 image001 image001

Planets Sun Sun Sun
Статистика раздачи
Автор: Снежана | Размер: 63.73 ГБ | Добавлен: 25 июл 2013
Раздают: 266    Качают: 82
Скачать торрент
Скачать торрент
Описание торрента

СообщениеДобавлено: 25 июл 2013 

#77

Информация о фильме
Название: На Краю Вселенной / Далеко во Вселенной
Оригинальное название: Farscape
Год выхода: 1999-2004
Жанр: Фантастика, Фэнтези, Приключения
Режиссер: Тони Тилс, Роуэн Вудс, Эндрю Проуз, Йен Уотсон, Питер Андрикидис, Джофф Беннетт, Катрин Миллар, Пино Амента, Йен Бэрри
В ролях: Бен Браудер, Клаудия Блэк, Вирджиния Хей, Энтони Симко, Джонатан Харди, Гиги Эджли, Лэни Джон Тупу, Пол Годдард, Уэйн Пигрэм, Тэмми Макинтош, Рейли Хилл, Мелисса Джэффер

О фильме:
Астронавт Джон Крайтон, испытывая модуль собственной разработки, проваливается в червоточину и, оказавшись на другом конце Вселенной, попадает в самую гущу космической битвы. Его модуль «Farscape-1» затягивает на борт Мойи, огромного био-механоидного живого корабля. Здесь Крайтон встречается с представителями других рас, оказавшимися беглыми заключенными, отчаянно пытающимися вырваться из лап агрессивных гомо сапиенс, называющих себя Миротворцами. Теперь товарищами Джона по путешествию становятся Ка Д’Арго - свирепый Лаксианский воин; Райджел XVI - похожий на слизняка Доминар Хайнирской Империи и Па У Зото Заан, безмятежная Дельвийская жрица. А камеру с ним делит товарищ по заключению Айрин Сун - захваченный офицер Миротворцев…

«На краю́ Вселе́нной» (англ. Farscape) — австралийско-американский фантастический телевизионный сериал. Телесериал снимался в Австралии при участии телекомпаний The Jim Henson Company и Hallmark Entertainment по заказу телеканала Sci Fi Channel. Пилотная серия вышла на экраны 19 марта 1999 года. Не является научной фантастикой из-за противоречий, а также множества физических законов, действующих в рамках отдельных эпизодов — в научной фантастике изначально заданная картина мира логична и внутренне непротиворечива.

В октябре 1999 года трансляция телесериала началась в России на телеканале ТНТ. В эфир вышло только три сезона телесериала. В 2005 году русским кабельным телеканалом Hallmark также был показан фильм «На краю Вселенной: Битва за мир».В данный момент сериал транслируется на русскоязычном канале AXN Sci-Fi.


Страна: Австралия, США
Продолжительность: 88 x ~00:50:00 сек.
Перевод: Профессиональный (многоголосый, закадровый)

Файл
Исходник: Blu-Ray 1080i
Кодек: XVID
Качество: BDRip
Видео: 640x480 (1-3 сезон), 720x400 (4 сезон), 23.976 fps, ~1697 kbps avg, 0.26 bit/pixel
Звук: 48 kHz, AC3 Dolby Digital, 3/2 (L,C,R,l,r) + LFE ch, ~448 kbps (Некоторые серии 2 сезона 2.0 192 kbps)
Субтитры: Нет

1-3 сезон:

4 сезон:
General
Complete name : C:Мои раздачи 3Farscape.1999-2004.hdrip_[teko]season.01s01e03_Exodus.from.Genesis.avi
Format : AVI
Format/Info : Audio Video Interleave
File size : 742 MiB
Duration : 51mn 33s
Overall bit rate : 2 012 Kbps
Writing application : VirtualDubMod 1.5.10.3 | www.virtualdub-fr.org || (build 2550/release)
Writing library : VirtualDubMod build 2550/release

Video
ID : 0
Format : MPEG-4 Visual
Format profile : Advanced Simple@L5
Format settings, BVOP : 2
Format settings, QPel : No
Format settings, GMC : No warppoints
Format settings, Matrix : Custom
Codec ID : XVID
Codec ID/Hint : XviD
Duration : 51mn 33s
Bit rate : 1 555 Kbps
Width : 640 pixels
Height : 480 pixels
Display aspect ratio : 4:3
Frame rate : 23.976 fps
Color space : YUV
Chroma subsampling : 4:2:0
Bit depth : 8 bits
Scan type : Progressive
Compression mode : Lossy
Bits/(Pixel*Frame) : 0.211
Stream size : 573 MiB (77%)
Writing library : XviD 65

Audio
ID : 1
Format : AC-3
Format/Info : Audio Coding 3
Mode extension : CM (complete main)
Codec ID : 2000
Duration : 51mn 33s
Bit rate mode : Constant
Bit rate : 448 Kbps
Channel(s) : 6 channels
Channel positions : Front: L C R, Side: L R, LFE
Sampling rate : 48.0 KHz
Bit depth : 16 bits
Compression mode : Lossy
Stream size : 165 MiB (22%)
Alignment : Split accross interleaves
Interleave, duration : 42 ms (1.00 video frame)
Interleave, preload duration : 500 ms


На Краю Вселенной BDRip 720p - http://rutor.org/torrent/291668

Original Score к На Краю Вселенной: http://rutor.org/torrent/291711/ Lossless, http://rutor.org/torrent/291711/ - MP3

Релиз: UnSlayeR



   Похожие торренты   Торрент   Размер 
В этой теме нет новых непрочитанных сообщений. На Краю Вселенной / Далеко во Вселенной / Farscape [S01-04] (1999-2004) BDRip 720p | P

20 | 74

172.04 ГБ

В этой теме нет новых непрочитанных сообщений. На Краю Вселенной / Далеко во Вселенной / Farscape [S01-04 + Фильм] (1999-2004) HDRip от Generalfilm | КПК | P

4 | 74

19 ГБ

В этой теме нет новых непрочитанных сообщений. На Краю Вселенной / Далеко во Вселенной / Farscape [S01] (1999) DVD | P (ТНТ)

9 | 13

51.63 ГБ

В этой теме нет новых непрочитанных сообщений. На краю вселенной / Farscape + The Peacekeeper Wars [S01-04] (1999-2004) BDRip | P, P2

24 | 32

36.48 ГБ

В этой теме нет новых непрочитанных сообщений. На краю вселенной / Farscape [S4] (1999-2004) DVDRip

3 | 5

7.76 ГБ

В этой теме нет новых непрочитанных сообщений. На краю вселенной / Farscape [S01-04] + Bonus (1999-2004) DVDRip

13 | 76

33.15 ГБ

В этой теме нет новых непрочитанных сообщений. OST - На Краю Вселенной / Далеко во Вселенной / Farscape (2000-2008) FLAC

1 | 3

1.67 ГБ




Вы не можете начинать темы
Вы не можете отвечать на сообщения
Вы не можете редактировать свои сообщения
Вы не можете удалять свои сообщения
Вы не можете добавлять вложения

Перейти:  
Для Мосгорсуда, Роскомнадзора и рекламодателей: mosgorsud-torrent[собачка]yandex.ru
 Вход
ppkBB3cker v.2 © 2008-2014 @ PPK
[ Time : 0.046s | 18 Queries | GZIP : Off ]

cron