img image001 image001 image001 image001 image001 image001 image001 image001 image001 image001 image001 image001 image001 image001 image001

Planets Sun Sun Sun
Статистика раздачи
Автор: Снежана | Размер: 19.21 ГБ | Добавлен: 25 июл 2013
Раздают: 0    Качают: 2
Скачать торрент
Скачать торрент
Описание торрента

СообщениеДобавлено: 25 июл 2013 

#77

Название: Гранд Отель
Оригинальное название: Gran Hotel
Год выпуска: 2013
Жанр: Драма
Режиссер: Карлос Седес, Сильвия Квир, Хорхе Санчес-Кабесудо

В ролях: Йон Гонсалес (Хулио Ольмедо), Амайя Саламанка (Алисия Аларкон), Адриана Осорес (донья Тереса), Педро Алонсо (Диего), Элой Асорин (Хавьер Аларкон), Феле Мартинес (Альфредо Вергара), Иван Моралес (Себастьян)

Описание: Действие происходит в 1905 году. Молодой человек Хулио приезжает в идиллическое место Гранд отель, где он намерен выяснить причины исчезновение своей сестры. Но на пути его расследования встретится Алисия Аларкон, член семьи владельца отеля, и которая станет единственным человеком, готовым помочь ему раскрыть правду. Между ними начнется невозможная история любви. Им мешает то обстоятельство, что Алисия помолвлена с Диего, амбициозным юношей, который готов на всё, чтобы стать директором Гранд Отеля…



Страна: Испания
Продолжительность: 22 х ~ 01:15:00
Перевод: Субтитры, внешние, SRT
Субтитры: Русские - Переведено на Нотабеноиде

Переводчики: Risti, premudraia, Marina_Ch, embryosel, Fantik, Olguitochka, KARINA86, shokkolattka



Качество: HDTVRip
Формат: AVI
Видео: DivX, 624x352, 1245 Kbps
Аудио: MP3, 48 kHz, 2 ch, 128 kbps - Испанский

01 - Baile de mascares (Бал-маскарад)
02 - Proposito de enmienda (Благие намерения)
03 - El secuestro (Похищение)
04 - Album de familia (Семейный альбом)
05 - El juego de las apariencias (Игра воображения)
06 - Lazos de sangre (Кровные узы)
07 - Южное общество (El círculo del mediodia)
08 - La ultima noche (Последняя ночь)
Формат : AVI
Формат/Информация : Audio Video Interleave
Размер файла : 942 Мбайт
Продолжительность : 1 ч. 25 м.
Общий поток : 1537 Кбит/сек
Название фильма : Гранд Отель. Сезон 3 / Gran Hotel. Temporada 3 (2013)
Программа кодирования : VirtualDubMod 1.5.10.2 (build 2540/release)
Библиотека кодирования : VirtualDubMod build 2540/release

Видео
Идентификатор : 0
Формат : MPEG-4 Visual
Параметр BVOP формата : 1
Параметр QPel формата : Нет
Параметр GMC формата : Без точки перехода
Параметр матрицы формата : Default (H.263)
Режим смешивания : Сжатый битовый поток
Идентификатор кодека : DX50
Идентификатор кодека/Подсказка : DivX 5
Продолжительность : 1 ч. 25 м.
Битрейт : 1399 Кбит/сек
Ширина : 624 пикселя
Высота : 352 пикселя
Соотношение сторон : 16:9
Частота кадров : 25,000 кадров/сек
Цветовое пространство : YUV
Субдискретизация насыщенности : 4:2:0
Битовая глубина : 8 бит
Тип развёртки : Прогрессивная
Метод сжатия : С потерями
Бит/(Пиксели*Кадры) : 0.255
Размер потока : 858 Мбайт (91%)
Библиотека кодирования : DivX 5.2.1 (WaffleDay) (UTC 2004-09-08)

Аудио
Идентификатор : 1
Формат : MPEG Audio
Версия формата : Version 1
Профиль формата : Layer 3
Режим : Joint stereo
Расширение режима : MS Stereo
Идентификатор кодека : 55
Идентификатор кодека/Подсказка : MP3
Продолжительность : 1 ч. 25 м.
Вид битрейта : Постоянный
Битрейт : 128 Кбит/сек
Каналы : 2 канала
Частота : 48,0 КГц
Метод сжатия : С потерями
Размер потока : 78,5 Мбайт (8%)
Выравнивание : Разделение по промежуткам
Продолжительность промежутка : 40 мс. (1,00 видеокадр)
Время предзагрузки промежутка : 500 мс.
Заголовок : Испанский



   Похожие торренты   Торрент   Размер 
В этой теме нет новых непрочитанных сообщений. Гранд Отель / Gran Hotel [S01-03] (2011-2013) HDTVRip-AVC | D, P

26 | 52

38.95 ГБ

В этой теме нет новых непрочитанных сообщений. Гранд Отель / Gran Hotel [S03] (2013) HDTVRip 720p | Sub

7 | 16

33.77 ГБ

В этой теме нет новых непрочитанных сообщений. Гранд Отель / Gran Hotel [03х06-13] (2013) HDTVRip | L1

60 | 21

9.38 ГБ

В этой теме нет новых непрочитанных сообщений. Гранд Отель / Gran Hotel [03х01-05 из 08] (2013) HDTVRip | DreamRecords

20 | 10

4.3 ГБ

В этой теме нет новых непрочитанных сообщений. Гранд Отель / Gran Hotel [S02] (2012) HDTVRip | DreamRecords

83 | 8

6.55 ГБ

В этой теме нет новых непрочитанных сообщений. Гранд Отель / Gran Hotel [03х05-13] (2013) HDTV 720p | L1

4 | 7

13.42 ГБ

В этой теме нет новых непрочитанных сообщений. Гранд Отель / Gran Hotel [03х01-05 из 08] (2013) HDTV 720p | DreamRecords

35 | 5

7.05 ГБ




Вы не можете начинать темы
Вы не можете отвечать на сообщения
Вы не можете редактировать свои сообщения
Вы не можете удалять свои сообщения
Вы не можете добавлять вложения

Перейти:  
Для Мосгорсуда, Роскомнадзора и рекламодателей: mosgorsud-torrent[собачка]yandex.ru
 Вход
ppkBB3cker v.2 © 2008-2014 @ PPK
[ Time : 83.507s | 14 Queries | GZIP : Off ]
CGP output time : 0.049s | 5 Queries | GZIP : Off

Торрент трекер RUTOR.IN, Не можете зайти на rutor.org? Какой новый адрес рутор? Какое зеркало рутор? Не работает rutor.org и зеркала? Тогда наш торрент специально для вас. Rutor.in неофициальное зеркало rutor. В случае если у Вас заблокирован rutor или вдруг Вы не можете на него зайти, то Вы без труда сможете скачать бесплатно и без рекламы последние новинки кино, игр, сериалов и прочего у нас, на Rutor.in. Не нужно использовать прокси, чтобы зайти на рутор, достаточно воспользоваться нашим ресурсом. Все новые фильмы, игры, сериалы, книги и музыка за 2013 и 2014 годы через торрент бесплатно. Скачивайте фильмы в хорошем качестве, игры для пк, xbox, playstation без регистрации. У нас вы найдете новые Зарубежные сериалы и Русские сериалы 2013, 2014, 2015 годов. Оставайтесь с нами, качайте любимые фильмы, игры, сериалы, книги и музыку.