img image001 image001 image001 image001 image001 image001 image001 image001 image001 image001 image001 image001 image001 image001 image001

Planets Sun Sun Sun
Статистика раздачи
Автор: Снежана | Размер: 6.84 ГБ | Добавлен: 25 июл 2013
Раздают: 3    Качают: 4
Скачать торрент
Скачать торрент
Описание торрента

СообщениеДобавлено: 25 июл 2013 

#77

Информация о сериале
Название: Мотель Бэйтс
Оригинальное название: Bates Motel
Год выхода: 2013
Жанр: ужасы, триллер, детектив
Режиссер: Такер Гейтс
В ролях: Кэролайн Мэтьюз, Вера Фармига, Фредди Хаймор, Джер Бернс, Мерседес Де Ла Зерда, Мэтт Эллис, Кончита Кэмпбелл, Майк Фогель, Нестор Карбонелл, У. Эрл Браун, Оливия Кук, Эммалин Эстрада, Ричард Хэрмон, Никола Пельтц, Дженна Романин, Макс Тириот, Киган Коннор Трейси, Бриттни Уилсон, Алийа О’Брайен, Александр Кэлверт и др.

Описание:
Шоу от создателей "Остаться в живых", снятое по мотивам культового фильма Альфреда Хичкока «Психо» 1960 года.

После трагической кончины своего мужа Норма Бэйтс покупает мотель на окраине прибрежного города, чтобы начать все с чистого листа. Пока Норма и Норман устраиваются в своем новом доме, они понимают, что у внешне спокойного городка есть свои секреты. Но Бэйтсы не позволят помыкать собой и сделают что угодно, чтобы выжить и сохранить свои тайны.



Страна: США
Студия: The Wolper Organization / Universal Television
Продолжительность: 10 x ~44 мин.
Перевод: Профессиональный (многоголосый закадровый) - [Несмертельное оружие]

Роли озвучивали: Михаил Кшиштовский, Денис Коровин, Ника Ленина, Олег Варганов, Надежда Серганова, Дмитрий Лунёв, Вероника Стригунова и Илья Гусаков

Файл
Качество: WEB-DLRip
Формат: AVI
Видео кодек: XviD
Аудио кодек: AC3

Видео: 720x400 (1.80:1), 23.976 fps, XviD MPEG-4 ~1826 kbps avg, 0.26 bit/pixel
| Аудио #1: 48 kHz, AC3, 2ch, 192 Kbps | Rus | MVO
| Аудио #2: 48 kHz, AC3, 2ch, 192 Kbps | Eng | Original



Релиз от:



General
Complete name : Bates.Motel.S01E10.Dual.WEB-DLRip.[Nesmertelnoe.oruzhie].avi
Format : AVI
Format/Info : Audio Video Interleave
File size : 700 MiB
Duration : 42mn 57s
Overall bit rate : 2 278 Kbps
Movie name : Мотель Бэйтс / Сезон: 1 / Эпизод: 10 - Полночь
Director : ANTipiGo
Genre : Horror/Thriller
Writing application : VirtualDubMod 1.5.10.2 (build 2540/release)
Writing library : VirtualDubMod build 2540/release
Original source form/Name : TV-Serie
Copyright : Творческое объединение "Несмертельное оружие"
Comment : http://vk.com/nesmertelnoe_oruzhie

Video
ID : 0
Format : MPEG-4 Visual
Format profile : Advanced Simple@L5
Format settings, BVOP : 2
Format settings, QPel : No
Format settings, GMC : No warppoints
Format settings, Matrix : Default (MPEG)
Codec ID : XVID
Codec ID/Hint : XviD
Duration : 42mn 57s
Bit rate : 1 880 Kbps
Width : 720 pixels
Height : 400 pixels
Display aspect ratio : 16:9
Frame rate : 23.976 fps
Color space : YUV
Chroma subsampling : 4:2:0
Bit depth : 8 bits
Scan type : Progressive
Compression mode : Lossy
Bits/(Pixel*Frame) : 0.272
Stream size : 578 MiB (83%)
Writing library : XviD 1.2.1 (UTC 2008-12-04)

Audio #1
ID : 1
Format : AC-3
Format/Info : Audio Coding 3
Mode extension : CM (complete main)
Format settings, Endianness : Big
Codec ID : 2000
Duration : 42mn 57s
Bit rate mode : Constant
Bit rate : 192 Kbps
Channel(s) : 2 channels
Channel positions : Front: L R
Sampling rate : 48.0 KHz
Bit depth : 16 bits
Compression mode : Lossy
Stream size : 59.0 MiB (8%)
Alignment : Split accross interleaves
Interleave, duration : 42 ms (1.00 video frame)
Interleave, preload duration : 500 ms
Title : [RUS] MVO (Несмертельное оружие)

Audio #2
ID : 2
Format : AC-3
Format/Info : Audio Coding 3
Mode extension : CM (complete main)
Format settings, Endianness : Big
Codec ID : 2000
Duration : 42mn 57s
Bit rate mode : Constant
Bit rate : 192 Kbps
Channel(s) : 2 channels
Channel positions : Front: L R
Sampling rate : 48.0 KHz
Bit depth : 16 bits
Compression mode : Lossy
Stream size : 59.0 MiB (8%)
Alignment : Split accross interleaves
Interleave, duration : 42 ms (1.00 video frame)
Interleave, preload duration : 500 ms
Title : [ENG] Original

Эпизод: 01
«Сперва мечтаешь, затем умираешь» (First You Dream, Then You Die)
Дата премьерного показа в США: 18 марта 2013 г.

Эпизод: 02
«Милый городок ты выбрала, Норма» (Nice Town You Picked, Norma)
Дата премьерного показа в США: 25 марта 2013 г.

Эпизод: 03
«Что не так с Норманом?» (What's Wrong With Norman)
Дата премьерного показа в США: 1 апреля 2013 г.

Эпизод: 04
«Доверься мне» (Trust Me)
Дата премьерного показа в США: 8 апреля 2013 г.

Эпизод: 05
«Вид на океан» (Ocean View)
Дата премьерного показа в США: 15 апреля 2013 г.

Эпизод: 06
«Правда» (The Truth)
Дата премьерного показа в США: 22 апреля 2013 г.

Эпизод: 07
«Мужчина в 9 номере» (The Man in Number 9)
Дата премьерного показа в США: 29 апреля 2013 г.

Эпизод: 08
«Мальчик и его собака» (A Boy and His Dog)
Дата премьерного показа в США: 6 мая 2013 г.

Эпизод: 09
«Под водой» (Underwater)
Дата премьерного показа в США: 13 мая 2013 г.

Эпизод: 10
«Полночь» (Midnight)
Дата премьерного показа в США: 20 мая 2013 г.




   Похожие торренты   Торрент   Размер 
В этой теме нет новых непрочитанных сообщений. Мотель Бейтса / Мотель Бэйтс / Мотель Бейтсов / Bates Motel [S01] (2013) WEB-DL 1080p | Несмертельное оружие

5 | 7

16.98 ГБ

В этой теме нет новых непрочитанных сообщений. Мотель Бейтса / Мотель Бэйтс / Мотель Бейтсов / Bates Motel [S01] (2013) WEB-DL 720p | Несмертельное оружие

0 | 2

14.24 ГБ

В этой теме нет новых непрочитанных сообщений. Мотель Бейтса / Мотель Бэйтс / Bates Motel [s01] (2013) WEB-DLRip | LostFilm

65 | 30

4.89 ГБ

В этой теме нет новых непрочитанных сообщений. Мотель Бейтса / Мотель Бэйтс / Bates Motel [S01-02] (2013-2014) WEB-DLRip | LostFilm

41 | 134

8.78 ГБ

В этой теме нет новых непрочитанных сообщений. Мотель Бейтса / Мотель Бэйтс / Bates Motel [03х01 из 10] (2015) WEB-DLRip | LostFilm

95 | 2

410.89 МБ

В этой теме нет новых непрочитанных сообщений. Мотель Бейтса / Мотель Бейтсов / Bates Motel [S02] (2014) WEB-DLRip | LostFilm

36 | 25

4.32 ГБ

В этой теме нет новых непрочитанных сообщений. Мотель Бейтса / Мотель Бейтсов / Bates Motel [S02] (2014) WEB-DLRip | NewStudio

43 | 7

5.37 ГБ




Вы не можете начинать темы
Вы не можете отвечать на сообщения
Вы не можете редактировать свои сообщения
Вы не можете удалять свои сообщения
Вы не можете добавлять вложения

Перейти:  
Для Мосгорсуда, Роскомнадзора и рекламодателей: mosgorsud-torrent[собачка]yandex.ru
 Вход
ppkBB3cker v.2 © 2008-2014 @ PPK
[ Time : 0.054s | 14 Queries | GZIP : Off ]

Торрент трекер RUTOR.IN, Не можете зайти на rutor.org? Какой новый адрес рутор? Какое зеркало рутор? Не работает rutor.org и зеркала? Тогда наш торрент специально для вас. Rutor.in неофициальное зеркало rutor. В случае если у Вас заблокирован rutor или вдруг Вы не можете на него зайти, то Вы без труда сможете скачать бесплатно и без рекламы последние новинки кино, игр, сериалов и прочего у нас, на Rutor.in. Не нужно использовать прокси, чтобы зайти на рутор, достаточно воспользоваться нашим ресурсом. Все новые фильмы, игры, сериалы, книги и музыка за 2013 и 2014 годы через торрент бесплатно. Скачивайте фильмы в хорошем качестве, игры для пк, xbox, playstation без регистрации. У нас вы найдете новые Зарубежные сериалы и Русские сериалы 2013, 2014, 2015 годов. Оставайтесь с нами, качайте любимые фильмы, игры, сериалы, книги и музыку.