img image001 image001 image001 image001 image001 image001 image001 image001 image001 image001 image001 image001 image001 image001 image001

Planets Sun Sun Sun
Статистика раздачи
Автор: Снежана | Размер: 16.98 ГБ | Добавлен: 26 июл 2013
Раздают: 5    Качают: 7
Скачать торрент
Скачать торрент
Описание торрента

СообщениеДобавлено: 26 июл 2013 

#77

Информация о сериале
Название: Мотель Бэйтс
Оригинальное название: Bates Motel
Год выхода: 2013
Жанр: ужасы, триллер, детектив
Режиссер: Такер Гейтс
В ролях: Кэролайн Мэтьюз, Вера Фармига, Фредди Хаймор, Джер Бернс, Мерседес Де Ла Зерда, Мэтт Эллис, Кончита Кэмпбелл, Майк Фогель, Нестор Карбонелл, У. Эрл Браун, Оливия Кук, Эммалин Эстрада, Ричард Хэрмон, Никола Пельтц, Дженна Романин, Макс Тириот, Киган Коннор Трейси, Бриттни Уилсон, Алийа О’Брайен, Александр Кэлверт и др.

Описание:
Шоу от создателей "Остаться в живых", снятое по мотивам культового фильма Альфреда Хичкока «Психо» 1960 года.

После трагической кончины своего мужа Норма Бэйтс покупает мотель на окраине прибрежного города, чтобы начать все с чистого листа. Пока Норма и Норман устраиваются в своем новом доме, они понимают, что у внешне спокойного городка есть свои секреты. Но Бэйтсы не позволят помыкать собой и сделают что угодно, чтобы выжить и сохранить свои тайны.



Страна: США
Студия: The Wolper Organization / Universal Television
Продолжительность: 10 x ~44 мин.
Перевод: Профессиональный (многоголосый закадровый) - [Несмертельное оружие]

Роли озвучивали: Михаил Кшиштовский, Денис Коровин, Ника Ленина, Олег Варганов, Надежда Серганова, Дмитрий Лунёв, Вероника Стригунова и Илья Гусаков

Файл
Качество: WEB-DL 1080p
Формат: MKV
Видео кодек: H.264
Аудио кодек: AC3

Видео: H.264, 1920x1080 (16:9), 23.976 fps, ~5113 Kbps, 0.103 bit/pixel
| Аудио #1: 48 kHz, AC3 Dolby Digital, 3/2 (L,C,R,l,r) + LFE ch, ~384.00 kbps avg | Rus | MVO
| Аудио #2: 48 kHz, AC3 Dolby Digital, 3/2 (L,C,R,l,r) + LFE ch, ~384.00 kbps avg | Eng | Original



Релиз от:



General
Unique ID : 186630066469562963354860602661215706684 (0x8C67A4B2D3815CF5823C913270AC9E3C)
Complete name : Bates.Motel.S01E01.WEB-DL.1080p.x264.RUS.-Nesmertelnoe.oruzhie.mkv
Format : Matroska
Format version : Version 2
File size : 1.84 GiB
Duration : 43mn 58s
Overall bit rate : 6 000 Kbps
Movie name : Мотель Бэйтс / Сезон: 1 / Эпизод: 01 - Сперва мечтаешь, затем умираешь
Encoded date : UTC 2013-03-22 19:35:21
Writing application : mkvmerge v5.2.1 ('A Far Off Place') built on Jan 2 2012 23:21:10
Writing library : libebml v1.2.3 + libmatroska v1.3.0

Video
ID : 1
Format : AVC
Format/Info : Advanced Video Codec
Format profile : High@L4.0
Format settings, CABAC : Yes
Format settings, ReFrames : 4 frames
Codec ID : V_MPEG4/ISO/AVC
Duration : 43mn 58s
Bit rate : 5 113 Kbps
Width : 1 920 pixels
Height : 1 080 pixels
Display aspect ratio : 16:9
Frame rate : 23.976 fps
Color space : YUV
Chroma subsampling : 4:2:0
Bit depth : 8 bits
Scan type : Progressive
Bits/(Pixel*Frame) : 0.103
Stream size : 1.57 GiB (85%)
Language : English
Default : Yes
Forced : No
Color primaries : BT.709-5, BT.1361, IEC 61966-2-4, SMPTE RP177
Transfer characteristics : BT.709-5, BT.1361
Matrix coefficients : BT.709-5, BT.1361, IEC 61966-2-4 709, SMPTE RP177

Audio #1
ID : 2
Format : AC-3
Format/Info : Audio Coding 3
Mode extension : CM (complete main)
Codec ID : A_AC3
Duration : 43mn 58s
Bit rate mode : Constant
Bit rate : 384 Kbps
Channel(s) : 6 channels
Channel positions : Front: L C R, Side: L R, LFE
Sampling rate : 48.0 KHz
Bit depth : 16 bits
Compression mode : Lossy
Stream size : 121 MiB (6%)
Title : MVO (Несмертельное оружие)
Language : Russian
Default : Yes
Forced : No

Audio #2
ID : 3
Format : AC-3
Format/Info : Audio Coding 3
Mode extension : CM (complete main)
Codec ID : A_AC3
Duration : 43mn 58s
Bit rate mode : Constant
Bit rate : 384 Kbps
Channel(s) : 6 channels
Channel positions : Front: L C R, Side: L R, LFE
Sampling rate : 48.0 KHz
Bit depth : 16 bits
Compression mode : Lossy
Stream size : 121 MiB (6%)
Title : Original
Language : English
Default : No
Forced : No

Text
ID : 4
Format : UTF-8
Codec ID : S_TEXT/UTF8
Codec ID/Info : UTF-8 Plain Text
Title : Full
Language : English
Default : No
Forced : No

Эпизод: 01
«Сперва мечтаешь, затем умираешь» (First You Dream, Then You Die)
Дата премьерного показа в США: 18 марта 2013 г.

Эпизод: 02
«Милый городок ты выбрала, Норма» (Nice Town You Picked, Norma)
Дата премьерного показа в США: 25 марта 2013 г.

Эпизод: 03
«Что не так с Норманом?» (What's Wrong With Norman)
Дата премьерного показа в США: 1 апреля 2013 г.

Эпизод: 04
«Доверься мне» (Trust Me)
Дата премьерного показа в США: 8 апреля 2013 г.

Эпизод: 05
«Вид на океан» (Ocean View)
Дата премьерного показа в США: 15 апреля 2013 г.

Эпизод: 06
«Правда» (The Truth)
Дата премьерного показа в США: 22 апреля 2013 г.

Эпизод: 07
«Мужчина в 9 номере» (The Man in Number 9)
Дата премьерного показа в США: 29 апреля 2013 г.

Эпизод: 08
«Мальчик и его собака» (A Boy and His Dog)
Дата премьерного показа в США: 6 мая 2013 г.

Эпизод: 09
«Под водой» (Underwater)
Дата премьерного показа в США: 13 мая 2013 г.

Эпизод: 10
«Полночь» (Midnight)
Дата премьерного показа в США: 20 мая 2013 г.




   Похожие торренты   Торрент   Размер 
В этой теме нет новых непрочитанных сообщений. Мотель Бейтса / Мотель Бэйтс / Мотель Бейтсов / Bates Motel [S01] (2013) WEB-DLRip | Несмертельное оружие

3 | 4

6.84 ГБ

В этой теме нет новых непрочитанных сообщений. Мотель Бейтса / Мотель Бэйтс / Мотель Бейтсов / Bates Motel [S01] (2013) WEB-DL 720p | Несмертельное оружие

0 | 2

14.24 ГБ

В этой теме нет новых непрочитанных сообщений. Мотель Бейтса / Мотель Бэйтс / Bates Motel [s01] (2013) WEB-DL 1080p от MediaClub

4 | 6

21.02 ГБ

В этой теме нет новых непрочитанных сообщений. Мотель Бейтса / Мотель Бэйтс / Bates Motel [s01] (2013) WEB-DLRip | LostFilm

65 | 30

4.89 ГБ

В этой теме нет новых непрочитанных сообщений. Мотель Бейтса / Мотель Бэйтс / Bates Motel [s01] (2013) WEB-DL 720p от MediaClub

7 | 53

18.29 ГБ

В этой теме нет новых непрочитанных сообщений. Мотель Бейтса / Мотель Бэйтс / Bates Motel [S01-02] (2013-2014) WEB-DLRip | LostFilm

41 | 134

8.78 ГБ

В этой теме нет новых непрочитанных сообщений. Мотель Бейтса / Мотель Бэйтс / Bates Motel [03х01 из 10] (2015) WEB-DLRip | LostFilm

95 | 2

410.89 МБ




Вы не можете начинать темы
Вы не можете отвечать на сообщения
Вы не можете редактировать свои сообщения
Вы не можете удалять свои сообщения
Вы не можете добавлять вложения

Перейти:  
Для Мосгорсуда, Роскомнадзора и рекламодателей: mosgorsud-torrent[собачка]yandex.ru
 Вход
ppkBB3cker v.2 © 2008-2014 @ PPK
[ Time : 0.109s | 14 Queries | GZIP : Off ]

Торрент трекер RUTOR.IN, Не можете зайти на rutor.org? Какой новый адрес рутор? Какое зеркало рутор? Не работает rutor.org и зеркала? Тогда наш торрент специально для вас. Rutor.in неофициальное зеркало rutor. В случае если у Вас заблокирован rutor или вдруг Вы не можете на него зайти, то Вы без труда сможете скачать бесплатно и без рекламы последние новинки кино, игр, сериалов и прочего у нас, на Rutor.in. Не нужно использовать прокси, чтобы зайти на рутор, достаточно воспользоваться нашим ресурсом. Все новые фильмы, игры, сериалы, книги и музыка за 2013 и 2014 годы через торрент бесплатно. Скачивайте фильмы в хорошем качестве, игры для пк, xbox, playstation без регистрации. У нас вы найдете новые Зарубежные сериалы и Русские сериалы 2013, 2014, 2015 годов. Оставайтесь с нами, качайте любимые фильмы, игры, сериалы, книги и музыку.