img image001 image001 image001 image001 image001 image001 image001 image001 image001 image001 image001 image001 image001 image001 image001

Planets Sun Sun Sun
Статистика раздачи
Автор: Снежана | Размер: 37.73 ГБ | Добавлен: 25 июл 2013
Раздают: 19    Качают: 25
Скачать торрент
Скачать торрент
Описание торрента

СообщениеДобавлено: 25 июл 2013 





Следствие по телу / Body of Proof









Год выпуска: 2011-2013
Выпущено: США
Жанр:Криминал, детектив, драма, комедия
Продолжительность эпизода:00:43:25
Сезон: 1-3
Серии: 1-40
Количество серий в сезоне: 42
Озвучка: Полное дублирование Сезон 1:Первый Канал,Сезон 2:Невафильм Россия,Сезон 3:FoxLife
Субтитры: НЕТ









Режиссер: Крис Мерфи / Chris Murphey




В ролях: Dana Delany, Nicholas Bishop, Windell Middlebrooks, Suzanne Gillies, Geoffrey Arend, John Carroll Lynch, Jeri Ryan и др.





«Следствие по телу» рассказывает уникальную историю судебного медэксперта доктора Меган Хант. Гениальный нейрохирург в прошлом, волей обстоятельств она становится ведущим криминалистом. Доктор Хант должна проводить все время в лаборатории. Но вместо этого врач активно включается в паутину расследований и становится настоящим сыщиком от медицины. В то время как полиция пытается получить информацию от живых, доктор Хант ищет разгадки в телах мертвых.




Качество 1сезона: WEB-DLRip-AVC(Исходник WEB-DLRip (720p)
Формат: MPEG-4
Видео кодек: H264
Видео: 2022Кбит/сек,1280х720(16.9),в 29.970кадр/сек,AVC(Baseline@L1.3)(1Ref Frames)
Аудио кодек: AAC
Аудио Russian Dolby Digital 5.1: 250Кбит/сек,44.1КГц,6каналов,AAC,(Version4)(LC)


Качество 2сезона: WEB-DLRip-AVC(Исходник WEB-DLRip (720p)
Формат: MPEG-4
Видео кодек: H264
Видео: 3105Кбит/сек,1280х720(16.9),в 29.970кадр/сек,AVC(Baseline@L3.1)(1Ref Frames)
Аудио кодек: AAC
Аудио Russian Dolby Digital 5.1: 288Кбит/сек,44.1КГц,6каналов,AAC,(Version4)(LC)
Качество 3сезона: WEB-DLRip-AVC(Исходник WEB-DLRip (720p)
Формат: MPEG-4
Видео кодек: H264
Видео: 3105Кбит/сек,1280х720(16.9),в 25.000кадр/сек,AVC(Baseline@L5.0)(1Ref Frames)
Аудио кодек: AAC
Аудио Russian Dolby Digital 5.1: 454Кбит/сек,44.1КГц,6каналов,AAC,(Version4)(LC)





Русская звуковая дорожка сделана путем наложения чистого голоса озвучивателей на центральный канал оригинальной дорожки. Качество идентично английской звуковой дорожке.





1. Pilot / Пилотная серия
2. Letting Go / Отпуская
3. Helping Hand / Рука помощи
4. Talking Heads / Говоря словами
5. Dead Man Walking / Ходячий мертвец
6. Society Hill / Высшее общество
7. All in the Family / Все в семье
8. Buried Secrets / Похороненые секреты
9. Broken Home / Разбитый дом






1. «Love Thy Neighbor / Возлюби соседа своего»
2. «Hunting Party / Охота»
3. «Missing / Похищение» (серия 1 сезона, показанная в России и Европе под номером 12, перенесенная каналом ABC на 2 сезон)
4. «Lazarus Man / Восставший из мертвых»
5. «Point Of Origin / Пункт отправления» (серия 1 сезона, показанная в России и Европе под номером 9, перенесенная каналом ABC на 2 сезон)
6. «Second Chances / Второй шанс» (серия 1 сезона, показанная в России и Европе под номером 11, перенесенная каналом ABC на 2 сезон)
7. «Hard Knocks / Жестокий удар» (серия 1 сезона, показанная в России и Европе под номером 13, перенесенная каналом ABC на 2 сезон)
8. «Love Bites / Укусы любви»
9. «Gross Anatomy / Наглядная анатомия»
10. «Your Number's Up / Твой счастливый номер»
11. «Falling For You / Пока смерть не разлучит вас»
12. «Shades of Blue / Оттенки синего»
13. «Sympathy For the Devil / Симпатия к дьяволу»
14. «Going Viral / Блуждающий вирус»
15. «Occupational Hazards / Профессиональные риски»
16. «Home Invasion / Посягательство на дом»
17. «Identity / Идентичность»
18. Going Viral, Part 1 / Блуждающий вирус. Часть 1
19. Going Viral, Part 2 / Блуждающий вирус. Часть 2
20. Mind Games / Игры разума - 11.04.2012






01. Похищенные: Часть 1 / Abduction: Part I
02. Похищенные: Часть 2 / Abduction: Part II
03. Lost Souls
04. Mob Mentality
05. Eye for an Eye
06. Fallen Angel
07. Skin and Bones
08. Doubting Tommy
09. Disappearing Act
10. Committed
11. Dark City

12. Breakout
13. Daddy Issues





General
Полное имя : F:К И Н ОС Е Р И А Л ЫС Л Е Д С Т В И Е П О Т Е Л УBody_Of_Proof_2011_-_2013_S01_-_S03_RUS[1canal_Russia_+_FoxLife]DD5.1_x264_Nikolai.Baranov_WEB-DLRip-AVC_(720p)S01Body.of.proof.s01e01.2011.rus[1canal.Russia]x264.Nikolai.Baranov.WEB-DL.AVC.mp4
Формат : MPEG-4
Профиль формата : Base Media
Идентификатор кодека : isom
Размер файла : 707 MiB
Продолжительность : 43mn 25s
Режим общего битрейта : Variable
Общий поток : 2 277 Kbps
Дата кодирования : UTC 2011-04-01 19:30:22
Дата пометки : UTC 2011-04-01 19:30:22
Программа кодирования : Lavf51.12.1

Video
Идентификатор : 1
Формат : AVC
Формат/Информация : Advanced Video Codec
Профиль формата : Baseline@L1.3
Параметр CABAC формата : No
Параметр ReFrames формата : 1 frame
Параметр GOP формата : M=1, N=12
Идентификатор кодека : avc1
Идентификатор кодека/Информация : Advanced Video Coding
Продолжительность : 43mn 25s
Битрейт : 2 022 Kbps
Ширина : 1 280 pixels
Высота : 720 pixels
Соотношение сторон : 16:9
Режим частоты кадров : Constant
Частота кадров : 29.970 fps
Цветовое пространство : YUV
Субдискретизация насыщенности : 4:2:0
Битовая глубина : 8 bits
Тип развёртки : Progressive
Бит/(Пиксели*Кадры) : 0.073
Размер потока : 628 MiB (89%)
Язык : English
Дата кодирования : UTC 2011-04-01 19:30:22
Дата пометки : UTC 2011-04-01 19:30:22

Audio
Идентификатор : 2
Формат : AAC
Формат/Информация : Advanced Audio Codec
Профиль формата : LC
Идентификатор кодека : 40
Продолжительность : 43mn 25s
Вид битрейта : Variable
Битрейт : 250 Kbps
Каналы : 6 channels
Расположение каналов : Front: L C R, Side: L R, LFE
Частота : 44.1 KHz
Метод сжатия : Lossy
Размер потока : 77.6 MiB (11%)
Язык : Russian
Дата кодирования : UTC 2011-04-01 19:30:22
Дата пометки : UTC 2011-04-01 19:30:22






General
Полное имя : F:CD53~1BC2C~19D73~1Body_Of_Proof_2011_-_2013_S01_-_S03_RUS[1canal_Russia_+_FoxLife]DD5.1_x264_Nikolai.Baranov_WEB-DLRip-AVC_(720p)S02Body.of.proof.s02e01.2011.rus[Russia.Невафильм]x264.DD5.1.Nikolai.Baranov.WEB-DL.AVC.mp4
Формат : MPEG-4
Профиль формата : Base Media
Идентификатор кодека : isom
Размер файла : 1 008 MiB
Продолжительность : 41mn 26s
Режим общего битрейта : Variable
Общий поток : 3 400 Kbps
Дата кодирования : UTC 2011-12-18 18:11:50
Дата пометки : UTC 2011-12-18 18:11:50
Программа кодирования : Lavf51.12.1

Video
Идентификатор : 1
Формат : AVC
Формат/Информация : Advanced Video Codec
Профиль формата : Baseline@L3.1
Параметр CABAC формата : No
Параметр ReFrames формата : 1 frame
Параметр GOP формата : M=1, N=12
Идентификатор кодека : avc1
Идентификатор кодека/Информация : Advanced Video Coding
Продолжительность : 41mn 26s
Вид битрейта : Variable
Битрейт : 3 105 Kbps
Максимальный битрейт : 3 750 Kbps
Ширина : 1 280 pixels
Высота : 720 pixels
Соотношение сторон : 16:9
Режим частоты кадров : Constant
Частота кадров : 29.970 fps
Частота кадров в оригинале : 24.000 fps
Цветовое пространство : YUV
Субдискретизация насыщенности : 4:2:0
Битовая глубина : 8 bits
Тип развёртки : Progressive
Бит/(Пиксели*Кадры) : 0.112
Размер потока : 920 MiB (91%)
Язык : English
Дата кодирования : UTC 2011-12-18 18:11:50
Дата пометки : UTC 2011-12-18 18:11:50

Audio
Идентификатор : 2
Формат : AAC
Формат/Информация : Advanced Audio Codec
Профиль формата : LC
Идентификатор кодека : 40
Продолжительность : 41mn 26s
Вид битрейта : Variable
Битрейт : 288 Kbps
Каналы : 6 channels
Расположение каналов : Front: L C R, Side: L R, LFE
Частота : 44.1 KHz
Метод сжатия : Lossy
Размер потока : 86.2 MiB (9%)
Язык : Russian
Дата кодирования : UTC 2011-12-18 18:11:50
Дата пометки : UTC 2011-12-18 18:11:50






General
Полное имя : F:К И Н ОС Е Р И А Л ЫС Л Е Д С Т В И Е П О Т Е Л УBody_Of_Proof_2011_-_2013_S01_-_S03_RUS[1canal_Russia_+_FoxLife]DD5.1_x264_Nikolai.Baranov_WEB-DLRip-AVC_(720p)S03Body.of.proof.s03e01.2013.rus[FoxLife]x264.DD5.1.Nikolai.Baranov.WEB-DL.AVC.mp4
Формат : MPEG-4
Профиль формата : Base Media
Идентификатор кодека : isom
Размер файла : 1.06 GiB
Продолжительность : 42mn 31s
Режим общего битрейта : Variable
Общий поток : 3 564 Kbps
Дата кодирования : UTC 2013-05-04 11:38:03
Дата пометки : UTC 2013-05-04 11:38:03
Программа кодирования : Lavf51.12.1

Video
Идентификатор : 1
Формат : AVC
Формат/Информация : Advanced Video Codec
Профиль формата : Baseline@L5.0
Параметр CABAC формата : No
Параметр ReFrames формата : 1 frame
Параметр GOP формата : M=1, N=12
Идентификатор кодека : avc1
Идентификатор кодека/Информация : Advanced Video Coding
Продолжительность : 42mn 31s
Вид битрейта : Variable
Битрейт : 3 105 Kbps
Максимальный битрейт : 4 500 Kbps
Ширина : 1 280 pixels
Высота : 720 pixels
Соотношение сторон : 16:9
Режим частоты кадров : Constant
Частота кадров : 25.000 fps
Частота кадров в оригинале : 24.000 fps
Цветовое пространство : YUV
Субдискретизация насыщенности : 4:2:0
Битовая глубина : 8 bits
Тип развёртки : Progressive
Бит/(Пиксели*Кадры) : 0.135
Размер потока : 944 MiB (87%)
Дата кодирования : UTC 2013-05-04 11:38:03
Дата пометки : UTC 2013-05-04 11:38:03

Audio
Идентификатор : 2
Формат : AAC
Формат/Информация : Advanced Audio Codec
Профиль формата : LC
Идентификатор кодека : 40
Продолжительность : 42mn 31s
Вид битрейта : Variable
Битрейт : 455 Kbps
Каналы : 6 channels
Расположение каналов : Front: L C R, Side: L R, LFE
Частота : 44.1 KHz
Метод сжатия : Lossy
Размер потока : 138 MiB (13%)
Дата кодирования : UTC 2013-05-04 11:38:03
Дата пометки : UTC 2013-05-04 11:38:03


























1 сезон


2 сезон




3 сезон




Внимание! Раздача пополняется по мере выхода новых серий!




В связи с тем, что данный релиз представляет собой копию американского показа с добавленной русской озвучкой, то в 1-ом сезоне будет присутствовать только 9 серий!!!





Раздача ведётся путём добавления новых серий; при каждом добавлении создётся новый торрент.
Чтобы начать докачку новой серии, пользователям необходимо сделать следующее:
1. остановить скачивание,
2. удалить старый торрент у себя из клиента (старые серии удалять не надо),
3. скачать новый торрент и запустить его у себя в клиенте вместо старого, при этом указать клиенту путь в старую папку, куда и должно происходить скачивание новых серий.

Ваш клиент при этом должен произвести хеширование (проверку) старой папки (если не производит сам - помогите ему сделать это), и будет докачивать только те серии которых у вас ещё нет. Старые серии при этом не удаляются, а продолжают раздаваться!

Eсли вы уже удалили старые серии, то предотвратить повторную закачку старых серий можно, отжав галочку в соответсвующих местах при запуске нового торрента. По возможности, желательно не удалять старые серии как можно дольше, чтобы релизёр не столько продолжал раздавать старые серии, а смог сконцентрироваться на новых.

Совет для тех, кто не хочет ждать перехеширования:
Создайте ещё одну папку рядом с папкой сериала (рядом, а не в ней!!!). Каждую новую серию после удачной загрузки копируйте в новую папку так чтобы ваша основная папка всегда была пуста. Когда ваш новый торрент предложит вам закачать все файлы, выберете только последнюю. Для сидирования же укажите адрес новой папки.

Как закачать отдельный файл из торрента или докачать ранее пропущенные файлы торрента!

1. Открыть торрент
2. Снять галки с тех файлов торрента, которые мы не хотим закачивать. Оставляем только на нужных нам файлах (файле).
3. Нажать О.К.

В клиенте utorrent

Инструкция

1) Открыть торрент


2) Снять галки с тех файлов торрента, которые мы не хотим закачивать:

* либо вручную, снимая с каждого файла галку( скрин №1)
* либо, нажав кнопку "Снять метки (Select None)", сняв сразу со всех файлов(скрин №2)
№1

№2

Оставляем только на нужных нам файлах (файле).

3)Нажать О.К






Внимание!!!08.07. 2012. РАЗДАЧА ОБНОВЛЕНА.ОБНОВИТЕ ТОРЕНТ ФАЙЛ.ПРИЯТНОГО ПРОСМОТРА.






Релиз от: Nikolai.Baranov



   Похожие торренты   Торрент   Размер 
В этой теме нет новых непрочитанных сообщений. Следствие по телу / Body of Proof [S01-03] (2011-2013) WEB-DLRip | NovaFilm

168 | 60

17.69 ГБ

В этой теме нет новых непрочитанных сообщений. Следствие по телу / Body of Proof [S02] (2011-2012) WEB-DLRip 720p | Невафильм

44 | 16

27.78 ГБ

В этой теме нет новых непрочитанных сообщений. Следствие по телу / Body of Proof [S01-03] (2011-2013) WEB-DL 720p | Невафильм

122 | 40

58.55 ГБ

В этой теме нет новых непрочитанных сообщений. Следствие по телу / Body of Proof [S01] (2011) WEB-DLRip

15 | 7

3.52 ГБ

В этой теме нет новых непрочитанных сообщений. Следствие по телу / Body of Proof [S01] (2011) WEB-DLRip-AVC

8 | 3

6.64 ГБ

В этой теме нет новых непрочитанных сообщений. Следствие по телу / Body of Proof [S02] (2011) WEB-DLRip | Fox Life

118 | 28

7.83 ГБ

В этой теме нет новых непрочитанных сообщений. Следствие по телу / Body of Proof [S01] (2011) WEB-DL 720p

112 | 10

12.73 ГБ




Вы не можете начинать темы
Вы не можете отвечать на сообщения
Вы не можете редактировать свои сообщения
Вы не можете удалять свои сообщения
Вы не можете добавлять вложения

Перейти:  
Для Мосгорсуда, Роскомнадзора и рекламодателей: mosgorsud-torrent[собачка]yandex.ru
 Вход
ppkBB3cker v.2 © 2008-2014 @ PPK
[ Time : 0.053s | 15 Queries | GZIP : Off ]

cron