img image001 image001 image001 image001 image001 image001 image001 image001 image001 image001 image001 image001 image001 image001 image001

Planets Sun Sun Sun
Статистика раздачи
Автор: Снежана | Размер: 23.14 ГБ | Добавлен: 25 июл 2013
Раздают: 8    Качают: 6
Скачать торрент
Скачать торрент
Описание торрента

СообщениеДобавлено: 25 июл 2013 


Вызов /Defiance

Год выпуска: 2013
Страна: США
Жанр: фантастика, боевик, драма
Продолжительность: ~ 00:44:00
Перевод: Профессиональный (многоголосый, закадровый) - BaibaKo
Режиссер: Майкл Нанкин
В ролях:
Грант Боулер, Джули Бенц, Дьюшэйн Уильямс, Тони Карран, Тренна Китинг, Стефани Леонидас, Джейми Мюррэй, Николь Муньос, Джессика Николс, Джастин Рэйн

Описание:
Сюжет сериала "Вызов" рассказывает о Земле, какой она стала после Бледных войн: противостояния землян и прилетевших "на поселение" инопланетян, чья система бинарных солнц превратилась в сверхновую. После того, как потери с обеих сторон достигли ужасных размеров и на Землю по ошибке попали терраформирующие машины инопланетян, горстка солдат осознала бессмысленность взаимного истребления и бросает вызов своим командирам. Цепная реакция привела к перемирию между землянами и вотанцами. В начале сериала со времен объявления перемирия прошло 15 лет. Бывший солдат Джозеф Нолан со своей приемной дочкой-инопланетянкой Айриссой попадает в некогда родной Сент-Луис, и вынужденно становится защитником местных жителей на посту шерифа. Ему предстоит жить в городе, ныне носящем гордое название Вызов, населенном представителями 6 рас, и бороться с силами, пытающимися стереть его с лица Земли.

Качество: WEB-DLRip 1080p
Видео: MPEG-4 AVC, 4096 Кбит/с, 1920x1080
Аудио (rus): AC3, 6 ch, 384 Кбит/с)
Аудио 2 (eng): AC3, 6 ch, 384 Кбит/с)
Перевод: Татьяна Saavick
Озвучка: Светлана Доманова, Татьяна Оболевич, Владимир Курдов, Олекса Мельник и Алексей Кузнецов
Монтаж: Игорь Лихо






General
Unique ID : 200123962862277407105028085928503061476 (0x968E7927FFCDFCB88766940C4D00ABE4)
Complete name : C:NewOutDefiance.s01e01.HD1080p.WEB-DL.Rus-Eng.BaibaKo.tv.mkv
Format : Matroska
File size : 1.86 GiB
Duration : 45mn 41s
Overall bit rate : 5 826 Kbps
Movie name : BaibaKo.tv presents - Вызов 1x01
Encoded date : UTC 2010-02-22 21:41:31
Writing application : mkvmerge v5.9.0 ('On The Loose') built on Dec 9 2012 15:37:01
Writing library : libebml v1.3.0 + libmatroska v1.4.0
Video
ID : 1
Format : AVC
Format/Info : Advanced Video Codec
Format profile : High@L4.0
Format settings, CABAC : Yes
Format settings, ReFrames : 4 frames
Codec ID : V_MPEG4/ISO/AVC
Duration : 45mn 41s
Bit rate : 4 942 Kbps
Width : 1 920 pixels
Height : 1 080 pixels
Display aspect ratio : 16:9
Frame rate : 23.976 fps
Color space : YUV
Chroma subsampling : 4:2:0
Bit depth : 8 bits
Scan type : Progressive
Bits/(Pixel*Frame) : 0.099
Stream size : 1.58 GiB (85%)
Language : English
Color primaries : BT.709-5, BT.1361, IEC 61966-2-4, SMPTE RP177
Transfer characteristics : BT.709-5, BT.1361
Matrix coefficients : BT.709-5, BT.1361, IEC 61966-2-4 709, SMPTE RP177
Audio #1
ID : 2
Format : AC-3
Format/Info : Audio Coding 3
Mode extension : CM (complete main)
Codec ID : A_AC3
Duration : 45mn 41s
Bit rate mode : Constant
Bit rate : 384 Kbps
Channel(s) : 6 channels
Channel positions : Front: L C R, Side: L R, LFE
Sampling rate : 48.0 KHz
Bit depth : 16 bits
Compression mode : Lossy
Stream size : 126 MiB (7%)
Title : Rus BaibaKo.tv DD5.1
Language : Russian
Audio #2
ID : 3
Format : AC-3
Format/Info : Audio Coding 3
Mode extension : CM (complete main)
Codec ID : A_AC3
Duration : 45mn 41s
Bit rate mode : Constant
Bit rate : 384 Kbps
Channel(s) : 6 channels
Channel positions : Front: L C R, Side: L R, LFE
Sampling rate : 48.0 KHz
Bit depth : 16 bits
Compression mode : Lossy
Stream size : 126 MiB (7%)
Title : Eng DD5.1
Language : English

Раздача ведётся путём добавления новых серий; при каждом добавлении создаётся новый торрент. Чтобы начать докачку новой серии, пользователям необходимо сделать следующее:
(1) остановить скачивание,
(2) удалить старый торрент у себя из клиента (старые серии удалять не надо),
(3) скачать новый торрент и запустить его у себя в клиенте вместо старого, при этом указать клиенту путь в старую папку куда и должно происходить скачивание новых серий.
Ваш клиент при этом должен произвести хеширование (проверку) старой папки (если не производит сам - помогите ему сделать это), и будет докачивать только те серии которых у вас ещё нет. Старые серии при этом не удаляются, а продолжают раздаваться!
Eсли вы уже удалили старые серии, то предотвратить повторную закачку старых серий можно, отжав галочку в соответствующих местах при запуске нового торрента. По возможности, желательно не удалять старые серии как можно дольше чтобы релизёр не столько продолжал раздавать старые серии, а смог сконцентрироваться на новых.



   Похожие торренты   Торрент   Размер 
В этой теме нет новых непрочитанных сообщений. Вызов / Defiance [S01] (2013) WEB-DLRip | BaibaKo

68 | 82

9.05 ГБ

В этой теме нет новых непрочитанных сообщений. Вызов / Defiance [S01] (2013) WEB-DLRip | BaibaKo

233 | 90

6.59 ГБ

В этой теме нет новых непрочитанных сообщений. Вызов / Defiance [S01] (2013) WEB-DLRip 720p | BaibaKo

18 | 6

19 ГБ

В этой теме нет новых непрочитанных сообщений. Вызов / Defiance [02x01 из 13] (2014) WEB-DLRip | BaibaKo

136 | 166

706.15 МБ

В этой теме нет новых непрочитанных сообщений. Вызов / Непокорная Земля / Defiance [s03] (2015) WEB-DLRip-AVC | Baibako

91 | 65

9.45 ГБ

В этой теме нет новых непрочитанных сообщений. Вызов / Непокорная Земля / Defiance [02x01-03 из 13] (2014) WEB-DLRip | BaibaKo

117 | 137

2.06 ГБ

В этой теме нет новых непрочитанных сообщений. Вызов / Непокорная Земля / Defiance [02x02 из 13] (2014) WEB-DLRip | BaibaKo

48 | 67

1.38 ГБ




Вы не можете начинать темы
Вы не можете отвечать на сообщения
Вы не можете редактировать свои сообщения
Вы не можете удалять свои сообщения
Вы не можете добавлять вложения

Перейти:  
Для Мосгорсуда, Роскомнадзора и рекламодателей: mosgorsud-torrent[собачка]yandex.ru
 Вход
ppkBB3cker v.2 © 2008-2014 @ PPK
[ Time : 0.057s | 16 Queries | GZIP : Off ]

cron