img image001 image001 image001 image001 image001 image001 image001 image001 image001 image001 image001 image001 image001 image001 image001 image001

Planets Sun Sun Sun
Статистика раздачи
Автор: Снежана | Размер: 14.31 ГБ | Добавлен: 25 июл 2013
Раздают: 95    Качают: 65
Скачать торрент
Скачать торрент
Описание торрента

СообщениеДобавлено: 25 июл 2013 

#77

Год выпуска: 2012
Производство: Россия / Город
Жанр: криминал, детектив
Продолжительность: 00:43:00 / серия
Режиссёр: Григорий Любомиров, Александр Кулямин

В ролях: Максим Щеголев, Максим Дрозд, Валерий Николаев, Надежда Бахтина, Игорь Верник, Геннадий Шныптев, Дмитрий Митюрич, Владимир Лысенко, Иннокентий Тарабара, Елена Олькина...

Описание: Трудно жить с человеком, у которого чрезвычайно сложный характер, которого никто не может сломать и ущемить, который ни перед каким предлогом не уступает и не идет даже на самые небольшие уступки. В народе подобных людей называют волками. Однако, как часто случается, их никто не окружает особо, поскольку они одинокие волки. Это история о сильном, мужественном и временами сложном характере.







Качество: SATRip (DVB)
Формат: AVI

Видео: 720x400 (16:9), 25.000 fps, XViD ~ 1794 kbps avg, 0.249 bit/pixel
Аудио: 48 kHz, АС3 2 ch, 192 kbps, русский

Раздача от:
Общее
Полное имя : Odinokiy.volk.2012.O.SATRip_[Youtracker]_by_avproh\01.avi
Формат : AVI
Формат/Информация : Audio Video Interleave
Размер файла : 605 Мбайт
Продолжительность : 42 м.
Общий поток : 1996 Кбит/сек
Программа кодирования : VirtualDubModRus 1.5.10.2 (build 2542/release)
Библиотека кодирования : VirtualDubMod build 2542/release

Видео
Идентификатор : 0
Формат : MPEG-4 Visual
Профиль формата : Advanced Simple@L5
Параметр BVOP формата : 1
Параметр QPel формата : Нет
Параметр GMC формата : Без точки перехода
Параметр матрицы формата : Выборочная
Идентификатор кодека : XVID
Идентификатор кодека/Подсказка : XviD
Продолжительность : 42 м.
Битрейт : 1794 Кбит/сек
Ширина : 720 пикселей
Высота : 400 пикселей
Соотношение сторон : 16:9
Частота кадров : 25,000 кадров/сек
Цветовое пространство : YUV
Субдискретизация насыщенности : 4:2:0
Битовая глубина : 8 бит
Тип развёртки : Прогрессивная
Метод сжатия : С потерями
Бит/(Пиксели*Кадры) : 0.249
Размер потока : 544 Мбайт (90%)
Библиотека кодирования : XviD 65

Аудио
Идентификатор : 1
Формат : AC-3
Формат/Информация : Audio Coding 3
Расширение режима : CM (complete main)
Параметр Endianness формата : Big
Идентификатор кодека : 2000
Продолжительность : 42 м.
Вид битрейта : Постоянный
Битрейт : 192 Кбит/сек
Каналы : 2 канала
Расположение каналов : Front: L R
Частота : 48,0 КГц
Битовая глубина : 16 бит
Метод сжатия : С потерями
Размер потока : 58,2 Мбайт (10%)
Выравнивание : Разделение по промежуткам
Продолжительность промежутка : 40 мс. (1,00 видеокадр)
Время предзагрузки промежутка : 500 мс.



http://rutor.org/torrent/255839/

Видео: http://screenshotcomparison.com/comparison/32240 - перекроп, квадраты, четкость кадра...

Аудио: http://screenshotcomparison.com/comparison/32237 - звук у конкурента подрезан по частотке.



   Похожие торренты   Торрент   Размер 
В этой теме нет новых непрочитанных сообщений. Одинокий волк [01-24 из 24] (2012) SATRip-AVC от Youtracker

28 | 19

14.3 ГБ

В этой теме нет новых непрочитанных сообщений. Одинокий волк [01-24 из 24] (2012) SATRip от Files-x

10 | 5

12.9 ГБ

В этой теме нет новых непрочитанных сообщений. Одинокий волк [01-24 из 24] (2012) DVB

6 | 8

39.01 ГБ

В этой теме нет новых непрочитанных сообщений. Балабол / Одинокий волк Саня [01-12] (2013 ) SATRip

4 | 2

6.28 ГБ

В этой теме нет новых непрочитанных сообщений. Балабол / Одинокий волк Саня [01-16 из 16] (2013) SATRip

939 | 166

8.38 ГБ

В этой теме нет новых непрочитанных сообщений. Балабол / Одинокий волк Саня [01-10] (2013) SATRip

257 | 2

5.23 ГБ

В этой теме нет новых непрочитанных сообщений. Балабол / Одинокий волк Саня [S01] (2013) HDTVRip от Generalfilm | КПК

25 | 3

3.56 ГБ




Вы не можете начинать темы
Вы не можете отвечать на сообщения
Вы не можете редактировать свои сообщения
Вы не можете удалять свои сообщения
Вы не можете добавлять вложения

Перейти:  
 Вход
ppkBB3cker v.2 © 2008-2014 @ PPK
[ Time : 0.045s | 16 Queries | GZIP : Off ]

cron