img image001 image001 image001 image001 image001 image001 image001 image001 image001 image001 image001 image001 image001 image001 image001

Planets Sun Sun Sun
Статистика раздачи
Автор: Снежана | Размер: 3.39 ГБ | Добавлен: 25 июл 2013
Раздают: 0    Качают: 1
Скачать торрент
Скачать торрент
Описание торрента

СообщениеДобавлено: 25 июл 2013 

#77

Год выпуска: 2012
Название: Пятничный ужин / Обед в пятницу вечером
Оригинальное название: Friday Night Dinner
Жанр: Ситком, комедия
Режиссёр: Стив Бенделак
В ролях: Тэмсин Грег, Саймон Бёрд, Том Розенталь, Марк Хип, Пол Риттер

Описание: Ежепятнично двадцати-с-чем-то-летние братья Адам и Джонни Гудман возвращаются в родительский дом на семейный обед.
Братьям эти еженедельные встречи представляются событием раздражающим, хоть и необходимым - необходимым, потому что их всё же накормят, а раздражающим, поскольку им предстоит провести вечер с отцом и матерью. Это не идеальные мать и отец. Это обычные мать и отец. Не считая того, что отец хлебает кетчуп из бутылки, мать одержима кулинарным шоу "Лучший повар", а бабушка любит щеголять по дому в одном новом бикини.



Страна: Великобритания
Продолжительность: 06 х ~ 00:21:00
Перевод: Профессиональный (двухголосый, закадровый) - DreamRecords
Субтитры: Русские

Озвучка: Михаил Шорыгин, Светлана Чистохина
Перевод: rbw
Монтаж: Михаил Шорыгин
Редакция: Ольга Галайда



Качество: HDTVRip 720p
Формат: MKV
Видео: H.264, 1280x720, 25 fps, 3 403 Kbps 0.148 bit/pixel
Аудио Rus: AC3, 48 Hz, 2 ch, 384 Kbps
Аудио Eng: AC3, 48 Hz, 2 ch, 384 Kbps

01. Buggy
02. Mr Morris
Format : Matroska
Format version : Version 2
File size : 666 MiB
Duration : 21mn 53s
Overall bit rate : 4 255 Kbps
Encoded date : UTC 2013-01-20 09:15:57
Writing application : mkvmerge v5.8.0 ('No Sleep / Pillow') built on Sep 2 2012 15:37:04
Writing library : libebml v1.2.3 + libmatroska v1.3.0

Video
ID : 1
Format : AVC
Format/Info : Advanced Video Codec
Format profile : High@L4.1
Format settings, CABAC : Yes
Format settings, ReFrames : 5 frames
Codec ID : V_MPEG4/ISO/AVC
Duration : 21mn 53s
Bit rate : 3 403 Kbps
Width : 1 280 pixels
Height : 720 pixels
Display aspect ratio : 16:9
Frame rate mode : Constant
Frame rate : 25.000 fps
Color space : YUV
Chroma subsampling : 4:2:0
Bit depth : 8 bits
Scan type : Progressive
Bits/(Pixel*Frame) : 0.148
Stream size : 533 MiB (80%)
Writing library : x264 core 128 r2216 198a7ea
Encoding settings : cabac=1 / ref=5 / deblock=1:0:0 / analyse=0x3:0x113 / me=umh / subme=8 / psy=1 / psy_rd=1.00:0.00 / mixed_ref=1 / me_range=16 / chroma_me=1 / trellis=1 / 8x8dct=1 / cqm=0 / deadzone=21,11 / fast_pskip=1 / chroma_qp_offset=-2 / threads=18 / lookahead_threads=3 / sliced_threads=0 / nr=0 / decimate=1 / interlaced=0 / bluray_compat=0 / constrained_intra=0 / bframes=3 / b_pyramid=2 / b_adapt=2 / b_bias=0 / direct=3 / weightb=1 / open_gop=0 / weightp=2 / keyint=250 / keyint_min=25 / scenecut=40 / intra_refresh=0 / rc_lookahead=50 / rc=crf / mbtree=1 / crf=18.0 / qcomp=0.60 / qpmin=0 / qpmax=69 / qpstep=4 / ip_ratio=1.40 / aq=1:1.00
Language : English
Default : Yes
Forced : No

Audio #1
ID : 2
Format : AC-3
Format/Info : Audio Coding 3
Mode extension : CM (complete main)
Format settings, Endianness : Big
Codec ID : A_AC3
Duration : 21mn 53s
Bit rate mode : Constant
Bit rate : 384 Kbps
Channel(s) : 2 channels
Channel positions : Front: L R
Sampling rate : 48.0 KHz
Bit depth : 16 bits
Compression mode : Lossy
Stream size : 60.1 MiB (9%)
Title : DreamRecords
Language : Russian
Default : Yes
Forced : No

Audio #2
ID : 3
Format : AC-3
Format/Info : Audio Coding 3
Mode extension : CM (complete main)
Format settings, Endianness : Big
Codec ID : A_AC3
Duration : 21mn 53s
Bit rate mode : Constant
Bit rate : 384 Kbps
Channel(s) : 2 channels
Channel positions : Front: L R
Sampling rate : 48.0 KHz
Bit depth : 16 bits
Compression mode : Lossy
Stream size : 60.1 MiB (9%)
Title : Original
Language : English
Default : No
Forced : No

Text
ID : 4
Format : UTF-8
Codec ID : S_TEXT/UTF8
Codec ID/Info : UTF-8 Plain Text
Title : Rus Sub
Language : Russian
Default : No
Forced : No


Релиз от:



   Похожие торренты   Торрент   Размер 
В этой теме нет новых непрочитанных сообщений. Обед в пятницу вечером / Пятничный ужин / Friday Night Dinner [02х01-06 из 07] (2012) HDTVRip | DreamRecords

41 | 5

1.44 ГБ

В этой теме нет новых непрочитанных сообщений. Обед в пятницу вечером / Friday Night Dinner [S02] (2012) HDTVRip 720p | P

5 | 3

3.66 ГБ

В этой теме нет новых непрочитанных сообщений. Обед в пятницу вечером / Friday Night Dinner [03х01-04 из 06] (2012) HDTVRip 720p | L

10 | 3

2.32 ГБ

В этой теме нет новых непрочитанных сообщений. Обед в пятницу вечером / Friday Night Dinner [S01] (2011) HDTVRip | Субтитры

8 | 2

1.08 ГБ

В этой теме нет новых непрочитанных сообщений. Обед в пятницу вечером / Friday Night Dinner [S01] (2011) HDTVRip | Jetvis Studio

1 | 2

1.08 ГБ

В этой теме нет новых непрочитанных сообщений. Обед в пятницу вечером / Friday Night Dinner [04х01 из 06] (2016) HDTVRip | NEON Studio

6 | 1

294.47 МБ

В этой теме нет новых непрочитанных сообщений. Обед в пятницу вечером / Friday Night Dinner [S01] (2011) WEB-DLRip | P

51 | 4

2.05 ГБ




Вы не можете начинать темы
Вы не можете отвечать на сообщения
Вы не можете редактировать свои сообщения
Вы не можете удалять свои сообщения
Вы не можете добавлять вложения

Перейти:  
Для Мосгорсуда, Роскомнадзора и рекламодателей: mosgorsud-torrent[собачка]yandex.ru
 Вход
ppkBB3cker v.2 © 2008-2014 @ PPK
[ Time : 0.056s | 15 Queries | GZIP : Off ]

Торрент трекер RUTOR.IN, Не можете зайти на rutor.org? Какой новый адрес рутор? Какое зеркало рутор? Не работает rutor.org и зеркала? Тогда наш торрент специально для вас. Rutor.in неофициальное зеркало rutor. В случае если у Вас заблокирован rutor или вдруг Вы не можете на него зайти, то Вы без труда сможете скачать бесплатно и без рекламы последние новинки кино, игр, сериалов и прочего у нас, на Rutor.in. Не нужно использовать прокси, чтобы зайти на рутор, достаточно воспользоваться нашим ресурсом. Все новые фильмы, игры, сериалы, книги и музыка за 2013 и 2014 годы через торрент бесплатно. Скачивайте фильмы в хорошем качестве, игры для пк, xbox, playstation без регистрации. У нас вы найдете новые Зарубежные сериалы и Русские сериалы 2013, 2014, 2015 годов. Оставайтесь с нами, качайте любимые фильмы, игры, сериалы, книги и музыку.
cron