img image001 image001 image001 image001 image001 image001 image001 image001 image001 image001 image001 image001 image001 image001 image001

Planets Sun Sun Sun
Статистика раздачи
Автор: Снежана | Размер: 1.44 ГБ | Добавлен: 25 июл 2013
Раздают: 41    Качают: 5
Скачать торрент
Скачать торрент
Описание торрента

СообщениеДобавлено: 25 июл 2013 

#77

Год выпуска: 2012
Название: Обед в пятницу вечером / Пятничный ужин
Оригинальное название: Friday Night Dinner
Жанр: Ситком, комедия
Режиссёр: Стив Бенделак
В ролях: Тэмсин Грег, Саймон Бёрд, Том Розенталь, Марк Хип, Пол Риттер

Описание: Ежепятнично двадцати-с-чем-то-летние братья Адам и Джонни Гудман возвращаются в родительский дом на семейный обед.
Братьям эти еженедельные встречи представляются событием раздражающим, хоть и необходимым - необходимым, потому что их всё же накормят, а раздражающим, поскольку им предстоит провести вечер с отцом и матерью. Это не идеальные мать и отец. Это обычные мать и отец. Не считая того, что отец хлебает кетчуп из бутылки, мать одержима кулинарным шоу "Лучший повар", а бабушка любит щеголять по дому в одном новом бикини.



Страна: Великобритания
Продолжительность: 06 х ~ 00:21:00
Перевод: Профессиональный (двухголосый, закадровый) - DreamRecords
Субтитры: Нет

Озвучка: Михаил Шорыгин, Светлана Чистохина
Перевод: rbw
Монтаж: Михаил Шорыгин
Редакция: Ольга Галайда



Качество: HDTVRip
Формат: AVI
Видео кодек: XviD
Аудио кодек: MP3
Видео: 720x400, 25 fps, 1 295 Kbps, 0.180 bits/pixel
Аудио: MP3, 48 kHz, 2 ch, 192 kbps

01. Buggy
02. Mr Morris
Format : AVI
Format/Info : Audio Video Interleave
File size : 236 MiB
Duration : 22mn 4s
Overall bit rate : 1 496 Kbps
Writing application : VirtualDubModRus 1.5.10.2 (build 2542/release)
Writing library : VirtualDubMod build 2542/release

Video
ID : 0
Format : MPEG-4 Visual
Format profile : Advanced Simple@L5
Format settings, BVOP : 1
Format settings, QPel : No
Format settings, GMC : No warppoints
Format settings, Matrix : Default (MPEG)
Codec ID : XVID
Codec ID/Hint : XviD
Duration : 22mn 4s
Bit rate : 1 294 Kbps
Width : 720 pixels
Height : 400 pixels
Display aspect ratio : 16:9
Frame rate : 25.000 fps
Color space : YUV
Chroma subsampling : 4:2:0
Bit depth : 8 bits
Scan type : Progressive
Compression mode : Lossy
Bits/(Pixel*Frame) : 0.180
Stream size : 204 MiB (87%)
Writing library : XviD 64

Audio
ID : 1
Format : MPEG Audio
Format version : Version 1
Format profile : Layer 3
Mode : Joint stereo
Codec ID : 55
Codec ID/Hint : MP3
Duration : 22mn 4s
Bit rate mode : Constant
Bit rate : 192 Kbps
Channel(s) : 2 channels
Sampling rate : 48.0 KHz
Compression mode : Lossy
Stream size : 30.3 MiB (13%)
Alignment : Aligned on interleaves
Interleave, duration : 40 ms (1.00 video frame)
Interleave, preload duration : 504 ms


Релиз от:



   Похожие торренты   Торрент   Размер 
В этой теме нет новых непрочитанных сообщений. Обед в пятницу вечером / Пятничный ужин / Friday Night Dinner [02х01-06 из 07] (2012) HDTVRip 720p | DreamRecords

0 | 1

3.39 ГБ

В этой теме нет новых непрочитанных сообщений. Обед в пятницу вечером / Friday Night Dinner [S02] (2012) HDTVRip 720p | P

5 | 3

3.66 ГБ

В этой теме нет новых непрочитанных сообщений. Обед в пятницу вечером / Friday Night Dinner [03х01-04 из 06] (2012) HDTVRip 720p | L

10 | 3

2.32 ГБ

В этой теме нет новых непрочитанных сообщений. Обед в пятницу вечером / Friday Night Dinner [S01] (2011) HDTVRip | Субтитры

8 | 2

1.08 ГБ

В этой теме нет новых непрочитанных сообщений. Обед в пятницу вечером / Friday Night Dinner [S01] (2011) HDTVRip | Jetvis Studio

1 | 2

1.08 ГБ

В этой теме нет новых непрочитанных сообщений. Обед в пятницу вечером / Friday Night Dinner [04х01 из 06] (2016) HDTVRip | NEON Studio

6 | 1

294.47 МБ

В этой теме нет новых непрочитанных сообщений. Обед в пятницу вечером / Friday Night Dinner [S01] (2011) WEB-DLRip | P

51 | 4

2.05 ГБ




Вы не можете начинать темы
Вы не можете отвечать на сообщения
Вы не можете редактировать свои сообщения
Вы не можете удалять свои сообщения
Вы не можете добавлять вложения

Перейти:  
Для Мосгорсуда, Роскомнадзора и рекламодателей: mosgorsud-torrent[собачка]yandex.ru
 Вход
ppkBB3cker v.2 © 2008-2014 @ PPK
[ Time : 4.406s | 14 Queries | GZIP : Off ]

Торрент трекер RUTOR.IN, Не можете зайти на rutor.org? Какой новый адрес рутор? Какое зеркало рутор? Не работает rutor.org и зеркала? Тогда наш торрент специально для вас. Rutor.in неофициальное зеркало rutor. В случае если у Вас заблокирован rutor или вдруг Вы не можете на него зайти, то Вы без труда сможете скачать бесплатно и без рекламы последние новинки кино, игр, сериалов и прочего у нас, на Rutor.in. Не нужно использовать прокси, чтобы зайти на рутор, достаточно воспользоваться нашим ресурсом. Все новые фильмы, игры, сериалы, книги и музыка за 2013 и 2014 годы через торрент бесплатно. Скачивайте фильмы в хорошем качестве, игры для пк, xbox, playstation без регистрации. У нас вы найдете новые Зарубежные сериалы и Русские сериалы 2013, 2014, 2015 годов. Оставайтесь с нами, качайте любимые фильмы, игры, сериалы, книги и музыку.