img image001 image001 image001 image001 image001 image001 image001 image001 image001 image001 image001 image001 image001 image001 image001

Planets Sun Sun Sun
Статистика раздачи
Автор: Снежана | Размер: 7.37 ГБ | Добавлен: 25 июл 2013, 13:52
Раздают: 5    Качают: 4
Скачать торрент
Скачать торрент
Описание торрента

СообщениеДобавлено: 25 июл 2013, 13:52 

#77

Название: Отель Адлон. Семейная сага
Оригинальное название: Das Adlon. Eine Familiensaga
Год выпуска: 2013
Жанр: Драма
Режиссер: Ули Эдел / Uli Edel
В ролях: Йозефине Пройсс (Sonja Schadt), Хайно Ферх (Louis Adlon), Мари Баумер (Hedda Adlon), Вотан Вильке Мёринг (Friedrich Loewe), Катарина Вакернагель (Margarete Loewe), Розмария Фендель (Sonja Schadt, (93)), Эми Мюбул (Pagenmädchen), Кен Дюкен (Julian Zimmermann), Бургхарт Клаусснер (Lorenz Adlon), Йохан фон Бюлов (Sebastian von Tennen), Сунньи Меллес (Ottilie Schadt), Юрген Фогель (Siegfried von Tennen)

Описание: Отель «Адлон» - не только отображение истории легендарного Гранд Отеля у Бранденбургских ворот, но и в то же время захватывающее путешествие во времени. Всемирно известный отель хранит в себе тайны связи двух семей, более четырех поколений и приоткрывает завесу тайны императорского времени с 1907 года вплоть до нашего времени.



Страна: Германия
Продолжительность: 03 х ~ 01:30:00
Перевод: Профессиональный (многоголосый, закадровый) - DreamRecords
По заказу: фан-группы Жозефины (Йозефине) Пройсс (Josefine Preuß)
Субтитры: Нет

Перевод: Елена Юрченко
Озвучка: Светлана Чистохина, Мила Мирелли, Владимир Чистохин и Михаил Суслов
Работа со звуком: Алексей Фокин



Качество: BDRip 720p
Формат: МКV
Видео: MPEG-4 AVC, ~3100 Кбит/с, 1280x720
Аудио: АС3, 2 ch, 192 Кбит/с - Русский
Аудио: АС3, 6 ch, 384 Кбит/с - Немецкий

General
Unique ID : 238267883492964611192931815505923552925 (0xB340B9A41E1FE5FC988BD66CC9A6369D)
Complete name : ...Das.Adlon.S01.BDRip.720p.DreamRecordsDas.Adlon.S01E01.BDRip.720p.DreamRecords.mkv
Format : Matroska
Format version : Version 2
File size : 2.55 GiB
Duration : 1h 36mn
Overall bit rate : 3 771 Kbps
Movie name : Das Adlon. Eine Familiensaga S01E01 'Teil 1' by SPS
Encoded date : UTC 2013-07-03 13:44:53
Writing application : mkvmerge v6.2.0 ('Promised Land') built on Apr 28 2013 12:22:01
Writing library : libebml v1.3.0 + libmatroska v1.4.0
Video
ID : 1
Format : AVC
Format/Info : Advanced Video Codec
Format profile : High@L4.1
Format settings, CABAC : Yes
Format settings, ReFrames : 5 frames
Codec ID : V_MPEG4/ISO/AVC
Duration : 1h 36mn
Bit rate : 3 120 Kbps
Width : 1 280 pixels
Height : 720 pixels
Display aspect ratio : 16:9
Frame rate : 25.000 fps
Color space : YUV
Chroma subsampling : 4:2:0
Bit depth : 8 bits
Scan type : Progressive
Bits/(Pixel*Frame) : 0.135
Stream size : 2.11 GiB (83%)
Writing library : x264 core 130 r2273 b3065e6
Encoding settings : cabac=1 / ref=5 / deblock=1:-3:-3 / analyse=0x3:0x113 / me=umh / subme=7 / psy=1 / psy_rd=1.00:0.15 / mixed_ref=1 / me_range=16 / chroma_me=1 / trellis=1 / 8x8dct=1 / cqm=0 / deadzone=21,11 / fast_pskip=0 / chroma_qp_offset=-3 / threads=12 / lookahead_threads=2 / sliced_threads=0 / nr=0 / decimate=1 / interlaced=0 / bluray_compat=0 / constrained_intra=0 / bframes=3 / b_pyramid=2 / b_adapt=1 / b_bias=0 / direct=3 / weightb=1 / open_gop=0 / weightp=2 / keyint=250 / keyint_min=25 / scenecut=40 / intra_refresh=0 / rc_lookahead=40 / rc=crf / mbtree=1 / crf=20.0 / qcomp=0.60 / qpmin=10 / qpmax=51 / qpstep=4 / ip_ratio=1.40 / aq=1:1.00
Default : Yes
Forced : No
Audio #1
ID : 2
Format : AC-3
Format/Info : Audio Coding 3
Mode extension : CM (complete main)
Codec ID : A_AC3
Duration : 1h 36mn
Bit rate mode : Constant
Bit rate : 192 Kbps
Channel(s) : 2 channels
Channel positions : Front: L R
Sampling rate : 48.0 KHz
Bit depth : 16 bits
Compression mode : Lossy
Stream size : 133 MiB (5%)
Title : DreamRecords
Language : Russian
Default : Yes
Forced : No
Audio #2
ID : 3
Format : AC-3
Format/Info : Audio Coding 3
Mode extension : CM (complete main)
Codec ID : A_AC3
Duration : 1h 36mn
Bit rate mode : Constant
Bit rate : 384 Kbps
Channel(s) : 6 channels
Channel positions : Front: L C R, Side: L R, LFE
Sampling rate : 48.0 KHz
Bit depth : 16 bits
Compression mode : Lossy
Stream size : 266 MiB (10%)
Title : Original
Language : German
Default : No
Forced : No




Релиз от: &



   Похожие торренты   Торрент   Размер 
В этой теме нет новых непрочитанных сообщений. Отель Адлон. Семейная сага / Das Adlon. Eine Familiensaga [S01] (2013) HDRip | DreamRecords

29 | 7

3.72 ГБ

В этой теме нет новых непрочитанных сообщений. Гранд Отель / Gran Hotel [03х01-05 из 08] (2013) HDTV 720p | DreamRecords

35 | 5

7.05 ГБ

В этой теме нет новых непрочитанных сообщений. Гранд Отель / Gran Hotel [S02] (2012) HDTV 720p | DreamRecords

6 | 4

16.88 ГБ

В этой теме нет новых непрочитанных сообщений. Гранд Отель / Gran Hotel [03х01-05 из 08] (2013) HDTVRip | DreamRecords

20 | 10

4.3 ГБ

В этой теме нет новых непрочитанных сообщений. Гранд Отель / Gran Hotel [S02] (2012) HDTVRip | DreamRecords

83 | 8

6.55 ГБ

В этой теме нет новых непрочитанных сообщений. Сага: Тень Кабала / SAGA - Curse of the Shadow (2013) BDRip 720p | L2

5 | 2

3.45 ГБ

В этой теме нет новых непрочитанных сообщений. Сага: Тень Кабала / SAGA - Curse of the Shadow (2013) BDRip 720p | P

455 | 119

3.31 ГБ




Вы не можете начинать темы
Вы не можете отвечать на сообщения
Вы не можете редактировать свои сообщения
Вы не можете удалять свои сообщения
Вы не можете добавлять вложения

Перейти:  
Для Мосгорсуда, Роскомнадзора и рекламодателей: mosgorsud-torrent[собачка]yandex.ru
Настройки
ppkBB3cker v.2 © 2008-2014 @ PPK
[ Time : 0.023s | 15 Queries | GZIP : Off ]
CGP [Extreme] output time : 0.00017s | 0 Queries | GZIP : Off

Торрент трекер RUTOR.IN, Не можете зайти на rutor.org? Какой новый адрес рутор? Какое зеркало рутор? Не работает rutor.org и зеркала? Тогда наш торрент специально для вас. Rutor.in неофициальное зеркало rutor. В случае если у Вас заблокирован rutor или вдруг Вы не можете на него зайти, то Вы без труда сможете скачать бесплатно и без рекламы последние новинки кино, игр, сериалов и прочего у нас, на Rutor.in. Не нужно использовать прокси, чтобы зайти на рутор, достаточно воспользоваться нашим ресурсом. Все новые фильмы, игры, сериалы, книги и музыка за 2013 и 2014 годы через торрент бесплатно. Скачивайте фильмы в хорошем качестве, игры для пк, xbox, playstation без регистрации. У нас вы найдете новые Зарубежные сериалы и Русские сериалы 2013, 2014, 2015 годов. Оставайтесь с нами, качайте любимые фильмы, игры, сериалы, книги и музыку.