img image001 image001 image001 image001 image001 image001 image001 image001 image001 image001 image001 image001 image001 image001 image001

Planets Sun Sun Sun
Статистика раздачи
Автор: Снежана | Размер: 17.41 ГБ | Добавлен: 25 июл 2013
Раздают: 1    Качают: 2
Скачать торрент
Скачать торрент
Описание торрента

СообщениеДобавлено: 25 июл 2013 

#77

Информация о фильме
Название: Дзен
Оригинальное название: Zen
Год выхода: 2011
Жанр: драма, криминал, детектив
Режиссер: Джон Александр, Джон Джонс, Кристофер Менол
В ролях: Руфус Сьюэлл, Катерина Мурино, Стэнли Таунсенд, Бен Майлз, Винсент Риотта, Катрин Спаак, Саргон Йельда, Франческо Куинн, Эд Стоппард, Энтони Хиггинс

О фильме:
Сериал об инспекторе отдела убийств Управления полиции Рима Аурелио Дзене, известном своей неподкупностью в насквозь коррумпированной итальянской полиции. В каждом эпизоде инспектор раскрывает всё более запутанные дела.
Season 1, Episodes 1-3
01: Вендетта / Vendetta
02: Кабал / Cabal
03: Крысиный король / Ratking



Страна: Великобритания, Италия, Германия
Продолжительность: 3 х ~ 01:29:00
Перевод: Перевод 1: Профессиональный (многоголосый закадровый) Домашний / Первый Канал
Перевод 2: Профессиональный (двухголосый закадровый) AlexFilm

Дорожка №2 получена наложением выделенного голоса на центр декодированного DTS-HD MA.
Файл
Кодек: x264
Качество: BDRip 720p TxN
Источник: Zen S01 1080i GER Blu-ray AVC DTS-HD MA 5.1
Видео: 1280x720 at 25.000 fps, x264@L4.1, 2pass, ~6000 kbps avg
Звук:
Аудио#1: Русский, 48 kHz, AC3, 2ch (L,R), 192 kbps avg | Домашний / Первый Канал
Аудио#2: Русский, 48 kHz, DTS, 3/2 (L,C,R,l,r) + LFE ch, ~1536 kbps avg | AlexFilm
Аудио#3: Английский, 48 kHz, DTS, 3/2 (L,C,R,l,r) + LFE ch, ~1536 kbps avg | Оригинал
Субтитры: Русские (volverine73), Английские
Формат : Matroska
Версия формата : Version 2
Размер файла : 5,79 Гбайт
Продолжительность : 1 ч. 30 м.
Режим общего битрейта : Переменный
Общий поток : 9204 Кбит/сек
Название фильма : Zen S01E01 720p BluRay AC3 x264
Дата кодирования : UTC 2013-06-05 11:41:56
Программа кодирования : mkvmerge v5.0.1 ('Es ist Sommer') built on Oct 9 2011 11:55:43
Библиотека кодирования : libebml v1.2.2 + libmatroska v1.3.0

Видео
Идентификатор : 1
Формат : AVC
Формат/Информация : Advanced Video Codec
Профиль формата : High@L4.1
Параметр CABAC формата : Да
Параметр ReFrames формата : 9 кадров
Идентификатор кодека : V_MPEG4/ISO/AVC
Продолжительность : 1 ч. 30 м.
Вид битрейта : Переменный
Битрейт : 6000 Кбит/сек
Максимальный битрейт : 25,0 Мбит/сек
Ширина : 1280 пикселей
Высота : 720 пикселей
Соотношение сторон : 16:9
Частота кадров : 25,000 кадров/сек
Цветовое пространство : YUV
Субдискретизация насыщенности : 4:2:0
Битовая глубина : 8 бит
Тип развёртки : Прогрессивная
Бит/(Пиксели*Кадры) : 0.260
Размер потока : 3,65 Гбайт (63%)
Библиотека кодирования : x264 core 130 r2273 b3065e6
Настройки программы : cabac=1 / ref=9 / deblock=1:0:0 / analyse=0x3:0x113 / me=umh / subme=9 / psy=1 / psy_rd=1.00:0.00 / mixed_ref=1 / me_range=16 / chroma_me=1 / trellis=1 / 8x8dct=1 / cqm=0 / deadzone=21,11 / fast_pskip=1 / chroma_qp_offset=-2 / threads=6 / lookahead_threads=1 / sliced_threads=0 / nr=0 / decimate=1 / interlaced=0 / bluray_compat=0 / constrained_intra=0 / bframes=9 / b_pyramid=2 / b_adapt=2 / b_bias=0 / direct=3 / weightb=1 / open_gop=0 / weightp=2 / keyint=250 / keyint_min=25 / scenecut=40 / intra_refresh=0 / rc_lookahead=50 / rc=2pass / mbtree=1 / bitrate=6000 / ratetol=1.0 / qcomp=0.60 / qpmin=0 / qpmax=69 / qpstep=4 / cplxblur=20.0 / qblur=0.5 / vbv_maxrate=25000 / vbv_bufsize=25000 / nal_hrd=vbr / ip_ratio=1.40 / aq=1:1.00
Default : Да
Forced : Нет

Аудио #1
Идентификатор : 2
Формат : AC-3
Формат/Информация : Audio Coding 3
Расширение режима : CM (complete main)
Идентификатор кодека : A_AC3
Продолжительность : 1 ч. 30 м.
Вид битрейта : Постоянный
Битрейт : 192 Кбит/сек
Каналы : 2 канала
Расположение каналов : Front: L R
Частота : 48,0 КГц
Битовая глубина : 16 бит
Метод сжатия : С потерями
Размер потока : 124 Мбайт (2%)
Заголовок : Pervii @ DD 2.0
Язык : Russian
Default : Да
Forced : Нет

Аудио #2
Идентификатор : 3
Формат : DTS
Формат/Информация : Digital Theater Systems
Идентификатор кодека : A_DTS
Продолжительность : 1 ч. 30 м.
Вид битрейта : Постоянный
Битрейт : 1510 Кбит/сек
Каналы : 6 каналов
Расположение каналов : Front: L C R, Side: L R, LFE
Частота : 48,0 КГц
Битовая глубина : 16 бит
Метод сжатия : С потерями
Размер потока : 972 Мбайт (16%)
Заголовок : AlexFilm @ DTS 5.1
Язык : Russian
Default : Нет
Forced : Нет

Аудио #3
Идентификатор : 4
Формат : DTS
Формат/Информация : Digital Theater Systems
Идентификатор кодека : A_DTS
Продолжительность : 1 ч. 30 м.
Вид битрейта : Постоянный
Битрейт : 1510 Кбит/сек
Каналы : 6 каналов
Расположение каналов : Front: L C R, Side: L R, LFE
Частота : 48,0 КГц
Битовая глубина : 16 бит
Метод сжатия : С потерями
Размер потока : 972 Мбайт (16%)
Заголовок : Original @ DTS 5.1
Язык : English
Default : Нет
Forced : Нет

Текст #1
Идентификатор : 5
Формат : UTF-8
Идентификатор кодека : S_TEXT/UTF8
Идентификатор кодека/Информация : UTF-8 Plain Text
Заголовок : volverine73
Язык : Russian
Default : Нет
Forced : Нет

Текст #2
Идентификатор : 6
Формат : VobSub
Режим смешивания : zlib
Идентификатор кодека : S_VOBSUB
Идентификатор кодека/Информация : The same subtitle format used on DVDs
Язык : English
Default : Нет
Forced : Нет

Меню
00:00:00.000 : en:00:00:00.000
00:10:28.240 : en:00:10:28.240
00:21:32.320 : en:00:21:32.320
00:33:48.240 : en:00:33:48.240
00:43:42.840 : en:00:43:42.840
00:54:25.080 : en:00:54:25.080
01:08:11.080 : en:01:08:11.080
01:21:12.680 : en:01:21:12.680








Релиз от: от Vlad1k_H_



   Похожие торренты   Торрент   Размер 
В этой теме нет новых непрочитанных сообщений. Секс и Дзен / 3D rou pu tuan zhi ji le bao jian / 3D Sex and Zen: Extreme Ecstasy (2011) BDRip 720p от FireBit

24 | 33

3.68 ГБ

В этой теме нет новых непрочитанных сообщений. Секс и Дзен: Экстремальный экстаз / 3D rou pu tuan zhi ji le bao jian (2011) BDRip 720p | 3D-Video / Анаглиф

28 | 29

6.26 ГБ

В этой теме нет новых непрочитанных сообщений. Дзен / Zen [S01] (2011) WEB-DL 720p | P

6 | 2

8.43 ГБ

В этой теме нет новых непрочитанных сообщений. Секс и Дзен / Секс и дзен: Ковер для телесных молитв / Sex and Zen / Yu pu tuan zhi: Tou qing bao jian (1991) HDRip

81 | 59

1.44 ГБ

В этой теме нет новых непрочитанных сообщений. Секс и Дзен 3D / 3D rou pu tuan zhi ji le bao jian (2011) BDRip-AVC от Samfednik

20 | 9

18.2 ГБ

В этой теме нет новых непрочитанных сообщений. Касание Дзен / Xia nü (1971) BDRip 720p

38 | 11

11.33 ГБ

В этой теме нет новых непрочитанных сообщений. Секс и Дзен: Экстремальный экстаз / 3D rou pu tuan zhi ji le bao jian (2011) BDRip-AVC от potroks

281 | 56

1.65 ГБ




Вы не можете начинать темы
Вы не можете отвечать на сообщения
Вы не можете редактировать свои сообщения
Вы не можете удалять свои сообщения
Вы не можете добавлять вложения

Перейти:  
Для Мосгорсуда, Роскомнадзора и рекламодателей: mosgorsud-torrent[собачка]yandex.ru
 Вход
ppkBB3cker v.2 © 2008-2014 @ PPK
[ Time : 0.063s | 14 Queries | GZIP : Off ]

Торрент трекер RUTOR.IN, Не можете зайти на rutor.org? Какой новый адрес рутор? Какое зеркало рутор? Не работает rutor.org и зеркала? Тогда наш торрент специально для вас. Rutor.in неофициальное зеркало rutor. В случае если у Вас заблокирован rutor или вдруг Вы не можете на него зайти, то Вы без труда сможете скачать бесплатно и без рекламы последние новинки кино, игр, сериалов и прочего у нас, на Rutor.in. Не нужно использовать прокси, чтобы зайти на рутор, достаточно воспользоваться нашим ресурсом. Все новые фильмы, игры, сериалы, книги и музыка за 2013 и 2014 годы через торрент бесплатно. Скачивайте фильмы в хорошем качестве, игры для пк, xbox, playstation без регистрации. У нас вы найдете новые Зарубежные сериалы и Русские сериалы 2013, 2014, 2015 годов. Оставайтесь с нами, качайте любимые фильмы, игры, сериалы, книги и музыку.