img image001 image001 image001 image001 image001 image001 image001 image001 image001 image001 image001 image001 image001 image001 image001

Planets Sun Sun Sun
Статистика раздачи
Автор: Снежана | Размер: 3.72 ГБ | Добавлен: 25 июл 2013
Раздают: 29    Качают: 7
Скачать торрент
Скачать торрент
Описание торрента

СообщениеДобавлено: 25 июл 2013 

#77

Название: Отель Адлон. Семейная сага
Оригинальное название: Das Adlon. Eine Familiensaga
Год выпуска: 2013
Жанр: Драма
Режиссер: Ули Эдел / Uli Edel
В ролях: Йозефине Пройсс (Sonja Schadt), Хайно Ферх (Louis Adlon), Мари Баумер (Hedda Adlon), Вотан Вильке Мёринг (Friedrich Loewe), Катарина Вакернагель (Margarete Loewe), Розмария Фендель (Sonja Schadt, (93)), Эми Мюбул (Pagenmädchen), Кен Дюкен (Julian Zimmermann), Бургхарт Клаусснер (Lorenz Adlon), Йохан фон Бюлов (Sebastian von Tennen), Сунньи Меллес (Ottilie Schadt), Юрген Фогель (Siegfried von Tennen)

Описание: Отель «Адлон» - не только отображение истории легендарного Гранд Отеля у Бранденбургских ворот, но и в то же время захватывающее путешествие во времени. Всемирно известный отель хранит в себе тайны связи двух семей, более четырех поколений и приоткрывает завесу тайны императорского времени с 1907 года вплоть до нашего времени.



Страна: Германия
Продолжительность: 03 х ~ 01:30:00
Перевод: Профессиональный (многоголосый, закадровый) - DreamRecords
По заказу: фан-группы Жозефины (Йозефине) Пройсс (Josefine Preuß)
Субтитры: Нет

Перевод: Елена Юрченко
Озвучка: Светлана Чистохина, Мила Мирелли, Владимир Чистохин и Михаил Суслов
Работа со звуком: Алексей Фокин



Качество: HDRip
Формат: AVI
Видео: XviD, 704x400, ~1650 Kbps
Аудио: АС3, 48.0 KHz, 2 ch, 192 Кбит/с

Общее
Полное имя : D:Dian KehtDreamRecordsDas.Adlon.S01.HDRip.DreamRecordsDas.Adlon.S01E01.HDRip.DreamRecords.avi
Формат : AVI
Формат/Информация : Audio Video Interleave
Профиль формата : OpenDML
Размер файла : 1,26 Гбайт
Продолжительность : 1 ч. 36 м.
Общий поток : 1855 Кбит/сек
Название фильма : Das Adlon. Eine Familiensaga S01E01 'Teil 1' by SPS
Программа кодирования : Lavf54.63.104

Видео
Идентификатор : 0
Формат : xvid
Идентификатор кодека : xvid
Продолжительность : 1 ч. 36 м.
Битрейт : 1650 Кбит/сек
Ширина : 704 пикс.
Высота : 400 пикс.
Соотношение сторон : 16:9
Частота кадров : 25,000 кадр/сек
Бит/(Пиксели*Кадры) : 0.234
Размер потока : 1,12 Гбайт (89%)

Аудио
Идентификатор : 1
Формат : AC-3
Формат/Информация : Audio Coding 3
Расширение режима : CM (complete main)
Идентификатор кодека : 2000
Продолжительность : 1 ч. 36 м.
Вид битрейта : Постоянный
Битрейт : 192 Кбит/сек
Каналы : 2 канала
Расположение каналов : Front: L R
Частота : 48,0 КГц
Битовая глубина : 16 бит
Метод сжатия : С потерями
Размер потока : 31,5 Мбайт (2%)
Выравнивание : Соединение по промежуткам
Продолжительность промежутка : 135 мс. (3,38 видеокадра)







   Похожие торренты   Торрент   Размер 
В этой теме нет новых непрочитанных сообщений. Отель Адлон. Семейная сага / Das Adlon. Eine Familiensaga [S01] (2013) BDRip 720p | DreamRecords

5 | 4

7.37 ГБ

В этой теме нет новых непрочитанных сообщений. Гранд Отель / Gran Hotel [03х01-05 из 08] (2013) HDTVRip | DreamRecords

20 | 10

4.3 ГБ

В этой теме нет новых непрочитанных сообщений. Гранд Отель / Gran Hotel [03х01-05 из 08] (2013) HDTV 720p | DreamRecords

35 | 5

7.05 ГБ

В этой теме нет новых непрочитанных сообщений. Гранд Отель / Gran Hotel [S02] (2012) HDTVRip | DreamRecords

83 | 8

6.55 ГБ

В этой теме нет новых непрочитанных сообщений. Гранд Отель / Gran Hotel [S02] (2012) HDTV 720p | DreamRecords

6 | 4

16.88 ГБ

В этой теме нет новых непрочитанных сообщений. Семейная свадьба / Our Family Wedding (2010) HDRip

27 | 1

1.37 ГБ

В этой теме нет новых непрочитанных сообщений. Семейная свадьба / Our Family Wedding (2010) HDRip

1 | 2

1.37 ГБ




Вы не можете начинать темы
Вы не можете отвечать на сообщения
Вы не можете редактировать свои сообщения
Вы не можете удалять свои сообщения
Вы не можете добавлять вложения

Перейти:  
Для Мосгорсуда, Роскомнадзора и рекламодателей: mosgorsud-torrent[собачка]yandex.ru
 Вход
ppkBB3cker v.2 © 2008-2014 @ PPK
[ Time : 0.041s | 14 Queries | GZIP : Off ]

Торрент трекер RUTOR.IN, Не можете зайти на rutor.org? Какой новый адрес рутор? Какое зеркало рутор? Не работает rutor.org и зеркала? Тогда наш торрент специально для вас. Rutor.in неофициальное зеркало rutor. В случае если у Вас заблокирован rutor или вдруг Вы не можете на него зайти, то Вы без труда сможете скачать бесплатно и без рекламы последние новинки кино, игр, сериалов и прочего у нас, на Rutor.in. Не нужно использовать прокси, чтобы зайти на рутор, достаточно воспользоваться нашим ресурсом. Все новые фильмы, игры, сериалы, книги и музыка за 2013 и 2014 годы через торрент бесплатно. Скачивайте фильмы в хорошем качестве, игры для пк, xbox, playstation без регистрации. У нас вы найдете новые Зарубежные сериалы и Русские сериалы 2013, 2014, 2015 годов. Оставайтесь с нами, качайте любимые фильмы, игры, сериалы, книги и музыку.