img image001 image001 image001 image001 image001 image001 image001 image001 image001 image001 image001 image001 image001 image001 image001

Planets Sun Sun Sun
Статистика раздачи
Автор: Снежана | Размер: 14.96 ГБ | Добавлен: 25 июл 2013
Раздают: 414    Качают: 240
Скачать торрент
Скачать торрент
Описание торрента

СообщениеДобавлено: 25 июл 2013 

#77

Год выпуска: 2012
Производство: Россия / Star Media
Жанр: детектив
Продолжительность: 00:45:00 / серия
Режиссёр: Рустам Уразаев, Сергей Артимович

В ролях: Эдуард Флёров, Михаил Павлик, Николай Козак, Оксана Гуляева, Анастасия Макеева, Елена Коровчук, Анатолий Кот, Игорь Филиппов, Александр Резалин, Михаил Горевой...

Описание: 1948 год. Бывший фронтовой разведчик, старший лейтенант Юрий Козырев, попавший в плен в последние дни войны и получивший за это срок, выходит из лагеря полностью оправданным и восстановленным в правах. Он едет в свой родной рабочий городок под Москвой, но возвращение не приносит ему большой радости. Юрий узнает, что отец пропал без вести на фронте, мать умерла, а любимая девушка Лариса вышла замуж за другого… На завод, где он до войны работал инженером, с политической статьей его, пусть и полностью реабилитированного, обратно не возьмут. Выбирать не приходится — Юрий устраивается сторожем. И однажды на склад, который Козырев охраняет, бандиты совершают налет. Главным подозреваемым становится Юрий. На него начинается настоящая охота. Он скрывается от милиции и принимает решение первым найти и обезвредить настоящего организатора ограбления. В награду за поимку преступника сам Лаврентий Берия распоряжается назначить Козырева на должность оперуполномоченного уголовного розыска в местное отделение милиции...
Как будут развиваться события, чем заполнятся опасные будни опера, с какими трудностями послевоенного быта придется столкнуться героям фильма и как сложатся их непростые личные отношения – смотрите в новом остросюжетном сериале «Легавый» на НТВ!







Качество: SATRip (DVB)
Формат: AVI

Видео: 720x400 (16:9), 25.000 fps, XViD ~ 1794 kbps avg, 0.249 bit/pixel
Аудио: 48 kHz, АС3 2 ch, 192 kbps, русский

Раздача от:
Общее
Полное имя : Legavyi.2012.O.SATRip_[Youtracker]_by_avproh�1.avi
Формат : AVI
Формат/Информация : Audio Video Interleave
Размер файла : 638 Мбайт
Продолжительность : 44 м.
Общий поток : 1996 Кбит/сек
Программа кодирования : VirtualDubModRus 1.5.10.2 (build 2542/release)
Библиотека кодирования : VirtualDubMod build 2542/release

Видео
Идентификатор : 0
Формат : MPEG-4 Visual
Профиль формата : Advanced Simple@L5
Параметр BVOP формата : 1
Параметр QPel формата : Нет
Параметр GMC формата : Без точки перехода
Параметр матрицы формата : Выборочная
Идентификатор кодека : XVID
Идентификатор кодека/Подсказка : XviD
Продолжительность : 44 м.
Битрейт : 1794 Кбит/сек
Ширина : 720 пикселей
Высота : 400 пикселей
Соотношение сторон : 16:9
Частота кадров : 25,000 кадров/сек
Цветовое пространство : YUV
Субдискретизация насыщенности : 4:2:0
Битовая глубина : 8 бит
Тип развёртки : Прогрессивная
Метод сжатия : С потерями
Бит/(Пиксели*Кадры) : 0.249
Размер потока : 573 Мбайт (90%)
Библиотека кодирования : XviD 65

Аудио
Идентификатор : 1
Формат : AC-3
Формат/Информация : Audio Coding 3
Расширение режима : CM (complete main)
Параметр Endianness формата : Big
Идентификатор кодека : 2000
Продолжительность : 44 м.
Вид битрейта : Постоянный
Битрейт : 192 Кбит/сек
Каналы : 2 канала
Расположение каналов : Front: L R
Частота : 48,0 КГц
Битовая глубина : 16 бит
Метод сжатия : С потерями
Размер потока : 61,3 Мбайт (10%)
Выравнивание : Разделение по промежуткам
Продолжительность промежутка : 40 мс. (1,00 видеокадр)
Время предзагрузки промежутка : 500 мс.



http://rutor.org/torrent/244666/

http://screenshotcomparison.com/comparison/32555 - по бокам сильный перекроп, квадраты, четкость кадра



   Похожие торренты   Торрент   Размер 
В этой теме нет новых непрочитанных сообщений. Легавый [01-24 из 24] (2012) SATRip-AVC от Youtracker

334 | 166

16.49 ГБ

В этой теме нет новых непрочитанных сообщений. Легавый [s01-02x1-56 из 56] (2012-2014) SATRip от GeneralFilm

296 | 96

20.34 ГБ

В этой теме нет новых непрочитанных сообщений. Легавый 2 [01-02 из 32] (2014) SATRip от Files-x

197 | 3

1.08 ГБ

В этой теме нет новых непрочитанных сообщений. Легавый 2 [01-02 из 32] (2014) SATRip от Files-x

935 | 240

6.46 ГБ

В этой теме нет новых непрочитанных сообщений. Легавый 2 [01-02 из 32] (2014) SATRip от Files-x

366 | 65

4.3 ГБ

В этой теме нет новых непрочитанных сообщений. Легавый 2 [01-02 из 32] (2014) SATRip от Files-x

149 | 37

3.22 ГБ

В этой теме нет новых непрочитанных сообщений. Легавый 2 [01-02 из 32] (2014) SATRip от Files-x

436 | 53

2.15 ГБ




Вы не можете начинать темы
Вы не можете отвечать на сообщения
Вы не можете редактировать свои сообщения
Вы не можете удалять свои сообщения
Вы не можете добавлять вложения

Перейти:  
Для Мосгорсуда, Роскомнадзора и рекламодателей: mosgorsud-torrent[собачка]yandex.ru
 Вход
ppkBB3cker v.2 © 2008-2014 @ PPK
[ Time : 0.534s | 15 Queries | GZIP : Off ]

Торрент трекер RUTOR.IN, Не можете зайти на rutor.org? Какой новый адрес рутор? Какое зеркало рутор? Не работает rutor.org и зеркала? Тогда наш торрент специально для вас. Rutor.in неофициальное зеркало rutor. В случае если у Вас заблокирован rutor или вдруг Вы не можете на него зайти, то Вы без труда сможете скачать бесплатно и без рекламы последние новинки кино, игр, сериалов и прочего у нас, на Rutor.in. Не нужно использовать прокси, чтобы зайти на рутор, достаточно воспользоваться нашим ресурсом. Все новые фильмы, игры, сериалы, книги и музыка за 2013 и 2014 годы через торрент бесплатно. Скачивайте фильмы в хорошем качестве, игры для пк, xbox, playstation без регистрации. У нас вы найдете новые Зарубежные сериалы и Русские сериалы 2013, 2014, 2015 годов. Оставайтесь с нами, качайте любимые фильмы, игры, сериалы, книги и музыку.