img image001 image001 image001 image001 image001 image001 image001 image001 image001 image001 image001 image001 image001 image001 image001

Planets Sun Sun Sun
Статистика раздачи
Автор: Снежана | Размер: 1.65 ГБ | Добавлен: 25 июл 2013
Раздают: 3    Качают: 2
Скачать торрент
Скачать торрент
Описание торрента

СообщениеДобавлено: 25 июл 2013 

Правосудие Декстера / Dexter

Сезон: 8 / Серии: 3 из 12

#77
Год выпуска: 2013
Страна: США
Жанр: триллер, драма, криминал, детектив
Продолжительность: 00:56:00
Перевод: Профессиональный (многоголосый закадровый) LostFilm
Субтитры: нет

Режиссёр: Маркос Сига / Marcos Siega, Тим Хантер / Tim Hunter, Кит Гордон / Keith Gordon

В ролях: Майкл Холл, Дженифер Карпентер, Лорен Велез, Дэвид Зайяс, Джеймс Ремар

Описание:
Я — Декстер. Декстер Морган. Я работаю судмедэкспертом в полиции Майами. Я не понимаю любви, мне безразличен секс, и у меня нет чувств. А еще я серийный убийца.
Мой отец был полицейским, и прекрасно обучил меня прятать улики. Обычным гражданам не стоит меня бояться, я убиваю только преступников, подонков, до которых почему-либо не смогла или не захотела добраться полиция. Я убиваю их, аккуратно распиливаю на части, и избавляюсь от трупов. Убийство для меня — творческий акт, искусство.




Качество: HDTVRip-AVC
Контейнер: MKV
Видео кодек: H264
Аудио кодек: AC3
Видео: 816x456 (16:9), 23.976 fps, H264, 1 228 Kbps, 0.138 bit/pixel
Аудио: 48 kHz, AC3 Dolby Digital, 2/0 (L,R) ch, ~192.00 kbps avg

Раздача от:


D:Dexter.S08E01.HDTVRip-AVC.by_dexter_lex..mkv
General
Unique ID : 183720969629114518041481942750583844049 (0x8A375F268E2724059E9CB93B1363ECD1)
Complete name : D:Dexter.S08E01.HDTVRip-AVC.by_dexter_lex..mkv
Format : Matroska
Format version : Version 2
File size : 546 MiB
Duration : 53mn 42s
Overall bit rate : 1 422 Kbps
Encoded date : UTC 2013-07-07 12:44:19
Writing application : mkvmerge v5.6.0 ('Kenya Kane') built on Jun 29 2012 15:01:44
Writing library : libebml v1.2.3 + libmatroska v1.3.0
Video #1
ID : 1
Format : AVC
Format/Info : Advanced Video Codec
Format profile : High@L4.1
Format settings, CABAC : Yes
Format settings, ReFrames : 11 frames
Codec ID : V_MPEG4/ISO/AVC
Duration : 53mn 42s
Bit rate : 1 228 Kbps
Width : 816 pixels
Height : 456 pixels
Display aspect ratio : 16:9
Frame rate : 23.976 fps
Color space : YUV
Chroma subsampling : 4:2:0
Bit depth : 8 bits
Scan type : Progressive
Bits/(Pixel*Frame) : 0.138
Stream size : 462 MiB (85%)
Writing library : x264 core 125 r2200 999b753
Encoding settings : cabac=1 / ref=11 / deblock=1:-3:-2 / analyse=0x3:0x113 / me=umh / subme=9 / psy=1 / psy_rd=1.00:0.10 / mixed_ref=1 / me_range=32 / chroma_me=1 / trellis=2 / 8x8dct=1 / cqm=0 / deadzone=21,11 / fast_pskip=0 / chroma_qp_offset=-3 / threads=6 / lookahead_threads=1 / sliced_threads=0 / nr=0 / decimate=1 / interlaced=0 / bluray_compat=0 / constrained_intra=0 / bframes=10 / b_pyramid=2 / b_adapt=1 / b_bias=0 / direct=3 / weightb=1 / open_gop=0 / weightp=2 / keyint=240 / keyint_min=23 / scenecut=40 / intra_refresh=0 / rc_lookahead=60 / rc=2pass / mbtree=1 / bitrate=1228 / ratetol=1.0 / qcomp=0.60 / qpmin=0 / qpmax=69 / qpstep=4 / cplxblur=20.0 / qblur=0.5 / ip_ratio=1.40 / aq=1:1.00
Default : Yes
Forced : No
Audio #2
ID : 2
Format : AC-3
Format/Info : Audio Coding 3
Mode extension : CM (complete main)
Codec ID : A_AC3
Duration : 53mn 42s
Bit rate mode : Constant
Bit rate : 192 Kbps
Channel(s) : 2 channels
Channel positions : Front: L R
Sampling rate : 48.0 KHz
Bit depth : 16 bits
Compression mode : Lossy
Stream size : 73.8 MiB (14%)
Default : Yes
Forced : No

Раздача ведётся путём добавления новых серий; при каждом добавлении создаётся новый торрент. Чтобы начать докачку новой серии, пользователям необходимо сделать следующее:
(1) остановить скачивание,
(2) удалить старый торрент у себя из клиента (старые серии удалять не надо),
(3) скачать новый торрент и запустить его у себя в клиенте вместо старого, при этом указать клиенту путь в старую папку куда и должно происходить скачивание новых серий.

Ваш клиент при этом должен произвести хеширование (проверку) старой папки (если не производит сам - помогите ему сделать это), и будет докачивать только те серии которых у вас ещё нет. Старые серии при этом не удаляются, а продолжают раздаваться!

Eсли вы уже удалили старые серии, то предотвратить повторную закачку старых серий можно, отжав галочку в соответствующих местах при запуске нового торрента. По возможности, желательно не удалять старые серии как можно дольше чтобы релизёр не столько продолжал раздавать старые серии, а смог сконцентрироваться на новых.



   Похожие торренты   Торрент   Размер 
В этой теме нет новых непрочитанных сообщений. Правосудие Декстера / Dexter [08х01-06 из 12] (2013) HDTVRip-AVC от Youtracker | LostFilm

24 | 14

3.25 ГБ

В этой теме нет новых непрочитанных сообщений. Правосудие Декстера / Dexter [08х01-04 из 12] (2013) HDTVRip-AVC от Youtracker | LostFilm

4 | 2

2.18 ГБ

В этой теме нет новых непрочитанных сообщений. Правосудие Декстера / Dexter [08х01 из 12] (2013) HDTVRip | LostFilm

0 | 2

575.25 МБ

В этой теме нет новых непрочитанных сообщений. Декстер / Правосудие Декстера / Dexter [08х01-04 из 12] (2013) HDTVRip | LostFilm

0 | 2

2.26 ГБ

В этой теме нет новых непрочитанных сообщений. Декстер / Правосудие Декстера / Dexter [08х01-06 из 12] (2013) HDTVRip | LostFilm

3 | 3

3.41 ГБ

В этой теме нет новых непрочитанных сообщений. Правосудие Декстера / Dexter [08х01-05 из 12] (2013) HDTVRip-AVC от New-team | LostFilm

2 | 4

2.72 ГБ

В этой теме нет новых непрочитанных сообщений. Декстер / Правосудие Декстера / Dexter [08х01-06 из 12] (2013) HDTVRip 720p | LostFilm

2 | 4

10.53 ГБ




Вы не можете начинать темы
Вы не можете отвечать на сообщения
Вы не можете редактировать свои сообщения
Вы не можете удалять свои сообщения
Вы не можете добавлять вложения

Перейти:  
Для Мосгорсуда, Роскомнадзора и рекламодателей: mosgorsud-torrent[собачка]yandex.ru
 Вход
ppkBB3cker v.2 © 2008-2014 @ PPK
[ Time : 0.053s | 15 Queries | GZIP : Off ]

Торрент трекер RUTOR.IN, Не можете зайти на rutor.org? Какой новый адрес рутор? Какое зеркало рутор? Не работает rutor.org и зеркала? Тогда наш торрент специально для вас. Rutor.in неофициальное зеркало rutor. В случае если у Вас заблокирован rutor или вдруг Вы не можете на него зайти, то Вы без труда сможете скачать бесплатно и без рекламы последние новинки кино, игр, сериалов и прочего у нас, на Rutor.in. Не нужно использовать прокси, чтобы зайти на рутор, достаточно воспользоваться нашим ресурсом. Все новые фильмы, игры, сериалы, книги и музыка за 2013 и 2014 годы через торрент бесплатно. Скачивайте фильмы в хорошем качестве, игры для пк, xbox, playstation без регистрации. У нас вы найдете новые Зарубежные сериалы и Русские сериалы 2013, 2014, 2015 годов. Оставайтесь с нами, качайте любимые фильмы, игры, сериалы, книги и музыку.