img image001 image001 image001 image001 image001 image001 image001 image001 image001 image001 image001 image001 image001 image001 image001

Planets Sun Sun Sun
Статистика раздачи
Автор: Снежана | Размер: 16.49 ГБ | Добавлен: 25 июл 2013
Раздают: 334    Качают: 166
Скачать торрент
Скачать торрент
Описание торрента

СообщениеДобавлено: 25 июл 2013 

#77

Год выпуска: 2012
Производство: Россия / Star Media
Жанр: детектив
Продолжительность: 00:45:00 / серия
Режиссёр: Рустам Уразаев, Сергей Артимович

В ролях: Эдуард Флёров, Михаил Павлик, Николай Козак, Оксана Гуляева, Анастасия Макеева, Елена Коровчук, Анатолий Кот, Игорь Филиппов, Александр Резалин, Михаил Горевой...

Описание: 1948 год. Бывший фронтовой разведчик, старший лейтенант Юрий Козырев, попавший в плен в последние дни войны и получивший за это срок, выходит из лагеря полностью оправданным и восстановленным в правах. Он едет в свой родной рабочий городок под Москвой, но возвращение не приносит ему большой радости. Юрий узнает, что отец пропал без вести на фронте, мать умерла, а любимая девушка Лариса вышла замуж за другого… На завод, где он до войны работал инженером, с политической статьей его, пусть и полностью реабилитированного, обратно не возьмут. Выбирать не приходится — Юрий устраивается сторожем. И однажды на склад, который Козырев охраняет, бандиты совершают налет. Главным подозреваемым становится Юрий. На него начинается настоящая охота. Он скрывается от милиции и принимает решение первым найти и обезвредить настоящего организатора ограбления. В награду за поимку преступника сам Лаврентий Берия распоряжается назначить Козырева на должность оперуполномоченного уголовного розыска в местное отделение милиции...
Как будут развиваться события, чем заполнятся опасные будни опера, с какими трудностями послевоенного быта придется столкнуться героям фильма и как сложатся их непростые личные отношения – смотрите в новом остросюжетном сериале «Легавый» на НТВ!







Качество: SATRip-AVC (DVB)
Формат: MKV

Видео: 720x428@768x428 (16:9), 25.000 fps, H264 ~ 2006 kbps avg, 0.260 bit/pixel
Аудио: 48 kHz, АС3 2 ch, 192 kbps, русский

Раздача от:
Общее
Полное имя : Legavyi.2012.O.SATRip-AVC_[Youtracker]_by_avproh\01.mkv
Формат : Matroska
Версия формата : Version 4 / Version 2
Размер файла : 703 Мбайт
Продолжительность : 44 м.
Общий поток : 2200 Кбит/сек
Дата кодирования : UTC 2013-07-17 08:15:35
Программа кодирования : mkvmerge v6.1.0 ('Old Devil') built on Mar 2 2013 14:32:37
Библиотека кодирования : libebml v1.3.0 + libmatroska v1.4.0

Видео
Идентификатор : 1
Формат : AVC
Формат/Информация : Advanced Video Codec
Профиль формата : High@L4.1
Параметр CABAC формата : Да
Параметр ReFrames формата : 11 кадров
Идентификатор кодека : V_MPEG4/ISO/AVC
Продолжительность : 44 м.
Битрейт : 2006 Кбит/сек
Ширина : 720 пикселей
Высота : 428 пикселей
Соотношение сторон : 16:9
Соотношение сторон в оригинале : 16:9
Режим частоты кадров : Постоянный
Частота кадров : 25,000 кадров/сек
Цветовое пространство : YUV
Субдискретизация насыщенности : 4:2:0
Битовая глубина : 8 бит
Тип развёртки : Прогрессивная
Бит/(Пиксели*Кадры) : 0.260
Размер потока : 628 Мбайт (89%)
Библиотека кодирования : x264 core 130 r2273 b3065e6
Настройки программы : cabac=1 / ref=11 / deblock=1:-2:-1 / analyse=0x3:0x113 / me=umh / subme=9 / psy=1 / psy_rd=1.00:0.20 / mixed_ref=1 / me_range=32 / chroma_me=1 / trellis=1 / 8x8dct=1 / cqm=0 / deadzone=21,11 / fast_pskip=0 / chroma_qp_offset=-3 / threads=9 / lookahead_threads=1 / sliced_threads=0 / nr=0 / decimate=0 / interlaced=0 / bluray_compat=0 / constrained_intra=0 / bframes=8 / b_pyramid=2 / b_adapt=2 / b_bias=0 / direct=3 / weightb=1 / open_gop=0 / weightp=2 / keyint=250 / keyint_min=25 / scenecut=40 / intra_refresh=0 / rc_lookahead=60 / rc=2pass / mbtree=1 / bitrate=2006 / ratetol=1.0 / qcomp=0.60 / qpmin=0 / qpmax=69 / qpstep=4 / cplxblur=20.0 / qblur=0.5 / ip_ratio=1.40 / aq=1:1.00
Язык : Russian
Default : Да
Forced : Нет

Аудио
Идентификатор : 2
Формат : AC-3
Формат/Информация : Audio Coding 3
Расширение режима : CM (complete main)
Параметр Endianness формата : Big
Идентификатор кодека : A_AC3
Продолжительность : 44 м.
Вид битрейта : Постоянный
Битрейт : 192 Кбит/сек
Каналы : 2 канала
Расположение каналов : Front: L R
Частота : 48,0 КГц
Битовая глубина : 16 бит
Метод сжатия : С потерями
Размер потока : 61,3 Мбайт (9%)
Язык : Russian
Default : Да
Forced : Нет





   Похожие торренты   Торрент   Размер 
В этой теме нет новых непрочитанных сообщений. Легавый [01-24 из 24] (2012) SATRip от Youtracker

414 | 240

14.96 ГБ

В этой теме нет новых непрочитанных сообщений. Легавый [s01-02x1-56 из 56] (2012-2014) SATRip от GeneralFilm

296 | 96

20.34 ГБ

В этой теме нет новых непрочитанных сообщений. Легавый 2 [01-02 из 32] (2014) SATRip от Files-x

197 | 3

1.08 ГБ

В этой теме нет новых непрочитанных сообщений. Легавый 2 [01-02 из 32] (2014) SATRip от Files-x

436 | 53

2.15 ГБ

В этой теме нет новых непрочитанных сообщений. Легавый 2 [01-02 из 32] (2014) SATRip от Files-x

149 | 37

3.22 ГБ

В этой теме нет новых непрочитанных сообщений. Легавый 2 [01-02 из 32] (2014) SATRip от Files-x

935 | 240

6.46 ГБ

В этой теме нет новых непрочитанных сообщений. Легавый 2 [01-02 из 32] (2014) SATRip от Files-x

366 | 65

4.3 ГБ




Вы не можете начинать темы
Вы не можете отвечать на сообщения
Вы не можете редактировать свои сообщения
Вы не можете удалять свои сообщения
Вы не можете добавлять вложения

Перейти:  
Для Мосгорсуда, Роскомнадзора и рекламодателей: mosgorsud-torrent[собачка]yandex.ru
 Вход
ppkBB3cker v.2 © 2008-2014 @ PPK
[ Time : 0.029s | 14 Queries | GZIP : On ]

Торрент трекер RUTOR.IN, Не можете зайти на rutor.org? Какой новый адрес рутор? Какое зеркало рутор? Не работает rutor.org и зеркала? Тогда наш торрент специально для вас. Rutor.in неофициальное зеркало rutor. В случае если у Вас заблокирован rutor или вдруг Вы не можете на него зайти, то Вы без труда сможете скачать бесплатно и без рекламы последние новинки кино, игр, сериалов и прочего у нас, на Rutor.in. Не нужно использовать прокси, чтобы зайти на рутор, достаточно воспользоваться нашим ресурсом. Все новые фильмы, игры, сериалы, книги и музыка за 2013 и 2014 годы через торрент бесплатно. Скачивайте фильмы в хорошем качестве, игры для пк, xbox, playstation без регистрации. У нас вы найдете новые Зарубежные сериалы и Русские сериалы 2013, 2014, 2015 годов. Оставайтесь с нами, качайте любимые фильмы, игры, сериалы, книги и музыку.