img image001 image001 image001 image001 image001 image001 image001 image001 image001 image001 image001 image001 image001 image001 image001

Planets Sun Sun Sun
Статистика раздачи
Автор: Снежана | Размер: 12.25 ГБ | Добавлен: 25 июл 2013
Раздают: 0    Качают: 2
Скачать торрент
Скачать торрент
Описание торрента

СообщениеДобавлено: 25 июл 2013 

#77

Информация о фильме
Название: Сошедшие с небес / Рухнувшие небеса
Оригинальное название: Falling Skies
Год выхода: 2013
Жанр: Фантастика, боевик
Режиссер: Грег Биман, Холли Дэйл, Серджо Мимика-Геззан
В ролях: Ноа Уайли, Максим Найт, Сейшелл Гэбриел, Терри О’Куинн, Коннор Джессуп, Питер Шинкода, Дрю Рой, Мун Бладгуд, Уилл Пэттон, Сара Картер, Колин Каннингэм и др.

О фильме:
В результате инопланетного вторжения на Землю один из сыновей профессора истории Тома Мэйсона попадает в плен, а его жена гибнет. Она оказалась одной из миллионов людей, погибших от рук пришельцев. Люди, которым посчастливилось остаться в живых, вступают в партизанские отряды, объединяются для оказания сопротивления захватчикам.
Землю атакуют два вида инопланетян – прямоходящие, прекрасно вооруженные роботы Mechs и насекомоподобные Skitters. Людям приходится несладко, а борьба с незваными гостями становится все сложнее из-за того, что последние используют современное оборудование, с помощью которого можно легко определить местонахождение больших групп людей. Именно поэтому остается одна надежда на партизан, которые боролись с противником небольшими группами. Немалых усилий, а часто и человеческих жизней стоит выявление слабых сторон захватчиков.

Страна: США, Канада
Студия: DreamWorks Television, Invasion Productions
Продолжительность: 7 x ~ 00:42:00
Перевод: Профессиональный (многоголосый, закадровый) LostFilm

Файл
Кодек: x264
Качество: WEB-DL 1080p
Видео: MPEG-4 AVC, ~ 5000 Кбит/с, 1920x1080
Звук: Русский, английский (AC3, 6 ch, 384 Кбит/с)
Субтитры: Русские, английские

Релиз от: hdtracker by CEZAR

Работа со звуком: CEZAR
Released by CEZAR

Русские субтитры: есть (Notabenoid)

General
Unique ID : 220086581119733679587970228861421114866 (0xA5932239BEEAEBAB80036439AD8255F2)
Complete name : Falling.Skies.S03.1080p.WEB-DL.DD5.1.H264-CEZARFalling.Skies.S03E01.1080p.WEB-DL.DD5.1.H264-CEZAR.mkv
Format : Matroska
Format version : Version 4 / Version 2
File size : 1.75 GiB
Duration : 42mn 7s
Overall bit rate : 5 963 Kbps
Encoded date : UTC 2013-06-16 21:57:31
Writing application : mkvmerge v6.1.0 ('Old Devil') built on Mar 2 2013 14:32:37
Writing library : libebml v1.3.0 + libmatroska v1.4.0

Video
ID : 1
Format : AVC
Format/Info : Advanced Video Codec
Format profile : High@L4.0
Format settings, CABAC : Yes
Format settings, ReFrames : 4 frames
Format settings, GOP : N=2
Codec ID : V_MPEG4/ISO/AVC
Duration : 42mn 7s
Bit rate : 5 077 Kbps
Width : 1 920 pixels
Height : 1 080 pixels
Display aspect ratio : 16:9
Frame rate mode : Constant
Frame rate : 23.976 fps
Color space : YUV
Chroma subsampling : 4:2:0
Bit depth : 8 bits
Scan type : Progressive
Bits/(Pixel*Frame) : 0.102
Stream size : 1.49 GiB (85%)
Default : Yes
Forced : No
Color primaries : BT.709
Transfer characteristics : BT.709
Matrix coefficients : BT.709

Audio #1
ID : 2
Format : AC-3
Format/Info : Audio Coding 3
Mode extension : CM (complete main)
Format settings, Endianness : Big
Codec ID : A_AC3
Duration : 42mn 7s
Bit rate mode : Constant
Bit rate : 384 Kbps
Channel(s) : 6 channels
Channel positions : Front: L C R, Side: L R, LFE
Sampling rate : 48.0 KHz
Bit depth : 16 bits
Compression mode : Lossy
Stream size : 116 MiB (6%)
Title : Lstfilm
Language : Russian
Default : Yes
Forced : No

Audio #2
ID : 3
Format : AC-3
Format/Info : Audio Coding 3
Mode extension : CM (complete main)
Format settings, Endianness : Big
Codec ID : A_AC3
Duration : 42mn 7s
Bit rate mode : Constant
Bit rate : 384 Kbps
Channel(s) : 6 channels
Channel positions : Front: L C R, Side: L R, LFE
Sampling rate : 48.0 KHz
Bit depth : 16 bits
Compression mode : Lossy
Stream size : 116 MiB (6%)
Language : English
Default : No
Forced : No

Text #1
ID : 4
Format : UTF-8
Codec ID : S_TEXT/UTF8
Codec ID/Info : UTF-8 Plain Text
Language : Russian
Default : No
Forced : No

Text #2
ID : 5
Format : UTF-8
Codec ID : S_TEXT/UTF8
Codec ID/Info : UTF-8 Plain Text
Language : English
Default : No
Forced : No

Menu
00:00:00.000 : en:Chapter 1
00:04:03.854 : en:Chapter 2
00:06:57.835 : en:Chapter 3
00:16:25.365 : en:Chapter 4
00:23:22.944 : en:Chapter 5
00:29:41.344 : en:Chapter 6
00:35:42.123 : en:Chapter 7
00:41:35.195 : en:Chapter 8




Релиз от



   Похожие торренты   Торрент   Размер 
В этой теме нет новых непрочитанных сообщений. Сошедшие с небес / Рухнувшие небеса / Falling Skies [03х01-07 из 10] (2013) WEB-DL 720p от HDTracker | LostFilm

0 | 2

9.96 ГБ

В этой теме нет новых непрочитанных сообщений. Сошедшие с небес / Рухнувшие небеса / Falling Skies [03х01-06 из 10] (2013) WEB-DL 720p от HDTracker | LostFilm

0 | 3

8.51 ГБ

В этой теме нет новых непрочитанных сообщений. Сошедшие с небес / Рухнувшие небеса / Falling Skies [03х01-03 из 10] (2013) WEB-DL 720p от HDTracker | LostFilm

0 | 2

4.29 ГБ

В этой теме нет новых непрочитанных сообщений. Сошедшие с небес / Рухнувшие небеса / Falling Skies [s03] (2013) WEB-DL 1080p от HDTracker | LostFilm

45 | 4

17.34 ГБ

В этой теме нет новых непрочитанных сообщений. Сошедшие с небес / Рухнувшие небеса / Falling Skies [s03] (2013) WEB-DL 720p от HDTracker | LostFilm

25 | 15

14.23 ГБ

В этой теме нет новых непрочитанных сообщений. Сошедшие с небес / Рухнувшие небеса / Falling Skies [03х01-08 из 10] (2013) WEB-DLRip | LostFilm

0 | 3

4.04 ГБ

В этой теме нет новых непрочитанных сообщений. Сошедшие с небес / Рухнувшие небеса / Falling Skies [03х01-07 из 10] (2013) WEB-DLRip | LostFilm

0 | 2

5.15 ГБ




Вы не можете начинать темы
Вы не можете отвечать на сообщения
Вы не можете редактировать свои сообщения
Вы не можете удалять свои сообщения
Вы не можете добавлять вложения

Перейти:  
Для Мосгорсуда, Роскомнадзора и рекламодателей: mosgorsud-torrent[собачка]yandex.ru
 Вход
ppkBB3cker v.2 © 2008-2014 @ PPK
[ Time : 0.033s | 15 Queries | GZIP : On ]

Торрент трекер RUTOR.IN, Не можете зайти на rutor.org? Какой новый адрес рутор? Какое зеркало рутор? Не работает rutor.org и зеркала? Тогда наш торрент специально для вас. Rutor.in неофициальное зеркало rutor. В случае если у Вас заблокирован rutor или вдруг Вы не можете на него зайти, то Вы без труда сможете скачать бесплатно и без рекламы последние новинки кино, игр, сериалов и прочего у нас, на Rutor.in. Не нужно использовать прокси, чтобы зайти на рутор, достаточно воспользоваться нашим ресурсом. Все новые фильмы, игры, сериалы, книги и музыка за 2013 и 2014 годы через торрент бесплатно. Скачивайте фильмы в хорошем качестве, игры для пк, xbox, playstation без регистрации. У нас вы найдете новые Зарубежные сериалы и Русские сериалы 2013, 2014, 2015 годов. Оставайтесь с нами, качайте любимые фильмы, игры, сериалы, книги и музыку.