img image001 image001 image001 image001 image001 image001 image001 image001 image001 image001 image001 image001 image001 image001 image001

Planets Sun Sun Sun
Статистика раздачи
Автор: Снежана | Размер: 3.16 ГБ | Добавлен: 25 июл 2013
Раздают: 41    Качают: 6
Скачать торрент
Скачать торрент
Описание торрента

СообщениеДобавлено: 25 июл 2013 

#77
Год выпуска: 2012
Производство: Россия, Кинокомпания «Магнум» по заказу МАРС МЕДИА
Жанр: мелодрама, комедия
Продолжительность: 4 ~ 00:46:00
Субтитры: нет

Режиссёр: Наталья Хлопецкая


В ролях: Юлия Кокрятская, Павел Прилучный, Александра Тюфтей, Роман Курцын, Дмитрий Марьянов, Людмила Чурсина, Александр Михайлов, Любовь Толкалина, Виктор Добронравов, Анастасия Новикова...


Описание: Женя Красилова — решительная и бескомпромиссная личность, она мечтает заниматься серьёзной журналистикой и, как минимум, «спасти мир», донося до читателей сокровенную правду жизни. Однако пока что ей приходится подрабатывать в сомнительном жёлтом издании и сочинять скандальные небылицы о жизни «звёзд». Однажды из-под её едкого пера выходит статья «Как выйти замуж за миллионера», в которой она крепко задевает известного столичного предпринимателя — Леонида Раевского и его подругу. Попавшей под горячую руку Жене приходится заключить пари с оскорблённым олигархом. В течение месяца она должна доказать, что действительно разбирается в материале, и добиться того, чтобы какой-нибудь миллионер сделал ей предложение.






Качество: DVDRip (DVD9 R5)
Формат: AVI

Видео: 720x400 (16:9), 25.000 fps, XViD ~ 2000 kbps avg, 0.278 bit/pixel
Аудио: 48 kHz, АС3 6 ch, 448 kbps, русский

Раздача от:
Общее
Полное имя : Kak.vyiti.zamuj.za.millionera.2012.DVDRip_[Youtracker]_by_avproh1.avi
Формат : AVI
Формат/Информация : Audio Video Interleave
Размер файла : 809 Мбайт
Продолжительность : 46 м.
Общий поток : 2458 Кбит/сек
Программа кодирования : VirtualDubMod 1.5.10.3 | www.virtualdub-fr.org || (build 2550/release)
Библиотека кодирования : VirtualDubMod build 2550/release

Видео
Идентификатор : 0
Формат : MPEG-4 Visual
Профиль формата : Advanced Simple@L5
Параметр BVOP формата : 1
Параметр QPel формата : Нет
Параметр GMC формата : Без точки перехода
Параметр матрицы формата : Выборочная
Идентификатор кодека : XVID
Идентификатор кодека/Подсказка : XviD
Продолжительность : 46 м.
Битрейт : 2000 Кбит/сек
Ширина : 720 пикселей
Высота : 400 пикселей
Соотношение сторон : 16:9
Частота кадров : 25,000 кадров/сек
Цветовое пространство : YUV
Субдискретизация насыщенности : 4:2:0
Битовая глубина : 8 бит
Тип развёртки : Прогрессивная
Метод сжатия : С потерями
Бит/(Пиксели*Кадры) : 0.278
Размер потока : 658 Мбайт (81%)
Библиотека кодирования : XviD 65

Аудио
Идентификатор : 1
Формат : AC-3
Формат/Информация : Audio Coding 3
Расширение режима : CM (complete main)
Параметр Endianness формата : Big
Идентификатор кодека : 2000
Продолжительность : 46 м.
Вид битрейта : Постоянный
Битрейт : 448 Кбит/сек
Каналы : 6 каналов
Расположение каналов : Front: L C R, Side: L R, LFE
Частота : 48,0 КГц
Битовая глубина : 16 бит
Метод сжатия : С потерями
Размер потока : 147 Мбайт (18%)
Выравнивание : Разделение по промежуткам
Продолжительность промежутка : 40 мс. (1,00 видеокадр)
Время предзагрузки промежутка : 500 мс.





   Похожие торренты   Торрент   Размер 
В этой теме нет новых непрочитанных сообщений. Как выйти замуж за миллионера [01-04 из 04] (2012) DVDRip-AVC от Youtracker | лицензия

150 | 13

3.16 ГБ

В этой теме нет новых непрочитанных сообщений. Как выйти замуж за миллионера [01-04 из 04] (2012) DVD9 R5 от Youtracker | лицензия

3 | 2

6.67 ГБ

В этой теме нет новых непрочитанных сообщений. Как выйти замуж за миллионера [01-04 из 04] (2012) WEBDLRip-AVC

14 | 7

2.59 ГБ

В этой теме нет новых непрочитанных сообщений. Как выйти замуж за миллионера [01-04 из 04] (2012) WEB-DLRip от Unitracker

146 | 5

2.7 ГБ

В этой теме нет новых непрочитанных сообщений. Как выйти замуж за миллионера [01-04 из 04] (2012) WEBDLRip 720p

3 | 5

4.74 ГБ

В этой теме нет новых непрочитанных сообщений. Как выйти замуж за миллионера [01-04 из 04] (2012) WEB-DLRip 1080p

5 | 3

5.39 ГБ

В этой теме нет новых непрочитанных сообщений. Как выйти замуж за миллионера / How To Marry A Millionaire (1953) DVDRip от AndrewWhite

14 | 2

2.06 ГБ




Вы не можете начинать темы
Вы не можете отвечать на сообщения
Вы не можете редактировать свои сообщения
Вы не можете удалять свои сообщения
Вы не можете добавлять вложения

Перейти:  
Для Мосгорсуда, Роскомнадзора и рекламодателей: mosgorsud-torrent[собачка]yandex.ru
 Вход
ppkBB3cker v.2 © 2008-2014 @ PPK
[ Time : 0.026s | 14 Queries | GZIP : Off ]

Торрент трекер RUTOR.IN, Не можете зайти на rutor.org? Какой новый адрес рутор? Какое зеркало рутор? Не работает rutor.org и зеркала? Тогда наш торрент специально для вас. Rutor.in неофициальное зеркало rutor. В случае если у Вас заблокирован rutor или вдруг Вы не можете на него зайти, то Вы без труда сможете скачать бесплатно и без рекламы последние новинки кино, игр, сериалов и прочего у нас, на Rutor.in. Не нужно использовать прокси, чтобы зайти на рутор, достаточно воспользоваться нашим ресурсом. Все новые фильмы, игры, сериалы, книги и музыка за 2013 и 2014 годы через торрент бесплатно. Скачивайте фильмы в хорошем качестве, игры для пк, xbox, playstation без регистрации. У нас вы найдете новые Зарубежные сериалы и Русские сериалы 2013, 2014, 2015 годов. Оставайтесь с нами, качайте любимые фильмы, игры, сериалы, книги и музыку.