img image001 image001 image001 image001 image001 image001 image001 image001 image001 image001 image001 image001 image001 image001 image001

Planets Sun Sun Sun
Статистика раздачи
Автор: Снежана | Размер: 3.77 ГБ | Добавлен: 25 июл 2013
Раздают: 13    Качают: 2
Скачать торрент
Скачать торрент
Описание торрента

СообщениеДобавлено: 25 июл 2013 

#77

Информация о фильме
Название: Фалькон
Оригинальное название: Falcоn
Год выхода: 2012
Жанр: Драма, криминал
Режиссер: Пит Трэвис, Гэбриел Рэндж
В ролях: Хейли Этвелл, Рик Бэйкон, Сантьяго Кабрера, Чарли Крид-Майлз, Мартон Чокаш, Джеймс Флойд, Эмилия Фокс, Керри Фокс, Наталия Тена, Хуан Ломардеро, Маурицио Баутиста, Дэниэл Серкера, Иман Эллиотт, Карина Фернандез

О фильме:
Хавьер Фалькон — старший инспектор севильской полиции, выдающийся детектив, чья личная и профессиональная жизнь находится под угрозой тёмных тайн прошлого. В одном из домов обнаружен труп связанного пожилого мужчины со срезанными веками. Неужели таким образом убийца пытался заставить его смотреть на что-то? Молодая вдова погибшего, похоже, не слишком убивается. Фалькону предстоит углубиться в нелицеприятные тайны данного семейства, которые самым неожиданном образом пересекаются с тайнами его семьи. Что случилось в прошлом? Каким образом его отец связан с убитым? Вопросов много… Сериал снят по бестселлерам Роберта Уилсона.
01. Севильский слепец. Часть 1

Тело известного севильского ресторатора Карлоса Хименеса обнаружено в его доме. Убийца срезал жертве веки, как будто заставив на что-то смотреть. Среди вещей погибшего старший инспектор испанской полиции Хавьер Фалькон находит фотографию своего отца - именитого художника Франсиско Фалькона...

02. Севильский слепец. Часть 2

В то время как напарники Фалькона считают причастной к убийствам молодую красивую вдову Хименеса Консуэло, старший инспектор уверен, что корни шокирующих преступлений лежат в прошлом Карлоса...

03. Немой и проклятый. Часть 1

В особняке найдено тело строительного Магната Рафаэля Баэны. Фалькон начинает расследование, но вскоре старшего инспектора отстраняют от дела - начальство хочет, чтобы Фалькон квалифицировал эту смерть как самоубийство, несмотря на явные следы пыток на теле. Детектив продолжает расследование и находит связь между убийством Баэны, смертью бродяги Виргилио Гузмана и событиями 40-летней давности в Чили…

04. Немой и проклятый. Часть 2

Фалькон прослеживает связь между ЦРУ и членами чилийского правительства, работавшими во времена Пиночета. В прошлом они были причастны к шокирующим преступлениям, а теперь спокойно живут в Севилье под вымышленными именами. Несмотря на противодействие со стороны официальных властей, Фалькон намерен посадить всех членов банды за решетку. Когда же становится ясно, что помощи ждать неоткуда, старший инспектор вынужден искать альтернативные методы покарать преступников….



Страна: Великобритания
Студия: Mammoth Screen, Plural Entertainment
Продолжительность: 4 x ~ 00:45:00
Перевод: Профессиональный многоголосы (Первый канал)

Файл
Кодек: MPEG-4 AVC
Качество: HDTVRip 720p
Видео: ~ 2500 Кбит/с, 1280x720, 25 кадр/с
Звук: Русский (АС3, 2 ch, 192 Кбит/с), английский (AC3, 6 ch, 384 Кбит/с)
Субтитры: Русские, английские

Работа со звуком: 13napas
Перевод субтитров: (Маша Макарова, Елена Частухина, Наталья Береснева)
Общее
Уникальный идентификатор : 237391282778356729401919166863789660418 (0xB297E5E395F62101996CA6F222C21902)
Полное имя : Falcon.S01.720p.HDTV.x264-CasStudioFalcon.S01E01.720p.HDTV.x264-CasStudio.mkv
Формат : Matroska
Версия формата : Version 4 / Version 2
Размер файла : 920 Мбайт
Продолжительность : 43 м.
Общий поток : 2962 Кбит/сек
Дата кодирования : UTC 2013-07-16 01:45:32
Программа кодирования : mkvmerge v6.3.0 ('You can't stop me!') built on Jun 28 2013 20:09:41
Библиотека кодирования : libebml v1.3.0 + libmatroska v1.4.0

Видео
Идентификатор : 1
Формат : AVC
Формат/Информация : Advanced Video Codec
Профиль формата : High@L4.1
Параметр CABAC формата : Да
Параметр ReFrames формата : 5 кадров
Идентификатор кодека : V_MPEG4/ISO/AVC
Продолжительность : 43 м.
Битрейт : 2328 Кбит/сек
Ширина : 1280 пикселей
Высота : 720 пикселей
Соотношение сторон : 16:9
Режим частоты кадров : Постоянный
Частота кадров : 25,000 кадров/сек
Цветовое пространство : YUV
Субдискретизация насыщенности : 4:2:0
Битовая глубина : 8 бит
Тип развёртки : Прогрессивная
Бит/(Пиксели*Кадры) : 0.101
Размер потока : 723 Мбайт (79%)
Библиотека кодирования : x264 core 129 r2230 1cffe9f
Настройки программы : cabac=1 / ref=5 / deblock=1:0:0 / analyse=0x3:0x113 / me=umh / subme=8 / psy=1 / psy_rd=1.00:0.00 / mixed_ref=1 / me_range=16 / chroma_me=1 / trellis=1 / 8x8dct=1 / cqm=0 / deadzone=21,11 / fast_pskip=1 / chroma_qp_offset=-2 / threads=12 / lookahead_threads=2 / sliced_threads=0 / nr=0 / decimate=1 / interlaced=0 / bluray_compat=0 / constrained_intra=0 / bframes=3 / b_pyramid=2 / b_adapt=2 / b_bias=0 / direct=3 / weightb=1 / open_gop=0 / weightp=2 / keyint=250 / keyint_min=25 / scenecut=40 / intra_refresh=0 / rc_lookahead=50 / rc=crf / mbtree=1 / crf=19.0 / qcomp=0.60 / qpmin=0 / qpmax=69 / qpstep=4 / ip_ratio=1.40 / aq=1:1.00
Язык : English
Default : Да
Forced : Нет

Аудио #1
Идентификатор : 2
Формат : AC-3
Формат/Информация : Audio Coding 3
Расширение режима : CM (complete main)
Параметр Endianness формата : Big
Идентификатор кодека : A_AC3
Продолжительность : 43 м.
Вид битрейта : Постоянный
Битрейт : 192 Кбит/сек
Каналы : 2 канала
Расположение каналов : Front: L R
Частота : 48,0 КГц
Битовая глубина : 16 бит
Метод сжатия : С потерями
Размер потока : 59,6 Мбайт (6%)
Язык : Russian
Default : Да
Forced : Нет

Аудио #2
Идентификатор : 3
Формат : AC-3
Формат/Информация : Audio Coding 3
Расширение режима : CM (complete main)
Параметр Endianness формата : Big
Идентификатор кодека : A_AC3
Продолжительность : 43 м.
Вид битрейта : Постоянный
Битрейт : 384 Кбит/сек
Каналы : 6 каналов
Расположение каналов : Front: L C R, Side: L R, LFE
Частота : 48,0 КГц
Битовая глубина : 16 бит
Метод сжатия : С потерями
Размер потока : 119 Мбайт (13%)
Язык : English
Default : Нет
Forced : Нет

Текст #1
Идентификатор : 4
Формат : UTF-8
Идентификатор кодека : S_TEXT/UTF8
Идентификатор кодека/Информация : UTF-8 Plain Text
Язык : Russian
Default : Нет
Forced : Нет

Текст #2
Идентификатор : 5
Формат : UTF-8
Идентификатор кодека : S_TEXT/UTF8
Идентификатор кодека/Информация : UTF-8 Plain Text
Язык : English
Default : Нет
Forced : Нет

Общее
Уникальный идентификатор : 190531321164143542049140199858187400340 (0x8F56FF67C8B5E6AE98D7CE7168B5F494)
Полное имя : Falcon.S01.720p.HDTV.x264-CasStudioFalcon.S01E02.720p.HDTV.x264-CasStudio.mkv
Формат : Matroska
Версия формата : Version 4 / Version 2
Размер файла : 1,11 Гбайт
Продолжительность : 45 м.
Общий поток : 3490 Кбит/сек
Дата кодирования : UTC 2013-07-17 13:39:27
Программа кодирования : mkvmerge v6.3.0 ('You can't stop me!') built on Jun 28 2013 20:09:41
Библиотека кодирования : libebml v1.3.0 + libmatroska v1.4.0

Видео
Идентификатор : 1
Формат : AVC
Формат/Информация : Advanced Video Codec
Профиль формата : High@L4.1
Параметр CABAC формата : Да
Параметр ReFrames формата : 5 кадров
Идентификатор кодека : V_MPEG4/ISO/AVC
Продолжительность : 45 м.
Битрейт : 2845 Кбит/сек
Ширина : 1280 пикселей
Высота : 720 пикселей
Соотношение сторон : 16:9
Режим частоты кадров : Постоянный
Частота кадров : 25,000 кадров/сек
Цветовое пространство : YUV
Субдискретизация насыщенности : 4:2:0
Битовая глубина : 8 бит
Тип развёртки : Прогрессивная
Бит/(Пиксели*Кадры) : 0.123
Размер потока : 925 Мбайт (82%)
Библиотека кодирования : x264 core 129 r2230 1cffe9f
Настройки программы : cabac=1 / ref=5 / deblock=1:0:0 / analyse=0x3:0x113 / me=umh / subme=8 / psy=1 / psy_rd=1.00:0.00 / mixed_ref=1 / me_range=16 / chroma_me=1 / trellis=1 / 8x8dct=1 / cqm=0 / deadzone=21,11 / fast_pskip=1 / chroma_qp_offset=-2 / threads=18 / lookahead_threads=3 / sliced_threads=0 / nr=0 / decimate=1 / interlaced=0 / bluray_compat=0 / constrained_intra=0 / bframes=3 / b_pyramid=2 / b_adapt=2 / b_bias=0 / direct=3 / weightb=1 / open_gop=0 / weightp=2 / keyint=250 / keyint_min=25 / scenecut=40 / intra_refresh=0 / rc_lookahead=50 / rc=crf / mbtree=1 / crf=18.0 / qcomp=0.60 / qpmin=0 / qpmax=69 / qpstep=4 / ip_ratio=1.40 / aq=1:1.00
Язык : English
Default : Да
Forced : Нет

Аудио #1
Идентификатор : 2
Формат : AC-3
Формат/Информация : Audio Coding 3
Расширение режима : CM (complete main)
Параметр Endianness формата : Big
Идентификатор кодека : A_AC3
Продолжительность : 45 м.
Вид битрейта : Постоянный
Битрейт : 192 Кбит/сек
Каналы : 2 канала
Расположение каналов : Front: L R
Частота : 48,0 КГц
Битовая глубина : 16 бит
Метод сжатия : С потерями
Размер потока : 62,4 Мбайт (6%)
Язык : Russian
Default : Да
Forced : Нет

Аудио #2
Идентификатор : 3
Формат : AC-3
Формат/Информация : Audio Coding 3
Расширение режима : CM (complete main)
Параметр Endianness формата : Big
Идентификатор кодека : A_AC3
Продолжительность : 45 м.
Вид битрейта : Постоянный
Битрейт : 384 Кбит/сек
Каналы : 6 каналов
Расположение каналов : Front: L C R, Side: L R, LFE
Частота : 48,0 КГц
Битовая глубина : 16 бит
Метод сжатия : С потерями
Размер потока : 125 Мбайт (11%)
Язык : English
Default : Нет
Forced : Нет

Текст #1
Идентификатор : 4
Формат : UTF-8
Идентификатор кодека : S_TEXT/UTF8
Идентификатор кодека/Информация : UTF-8 Plain Text
Язык : Russian
Default : Нет
Forced : Нет

Текст #2
Идентификатор : 5
Формат : UTF-8
Идентификатор кодека : S_TEXT/UTF8
Идентификатор кодека/Информация : UTF-8 Plain Text
Язык : English
Default : Нет
Forced : Нет




Релиз от: by 13napas



   Похожие торренты   Торрент   Размер 
В этой теме нет новых непрочитанных сообщений. Фалькон / Falcоn [S01] (2012) HDTVRip | L1

8 | 2

3.15 ГБ

В этой теме нет новых непрочитанных сообщений. Номер один господин Кхан / Citizen Khan [s01] (2012) HDTVRip 720p от CasStudio | Комедия ТВ

15 | 6

2.8 ГБ

В этой теме нет новых непрочитанных сообщений. Помнить все / Unforgettable [S01] (2011-2012) WEB-DL 720p от CasStudio | ТВ3

10 | 10

30 ГБ

В этой теме нет новых непрочитанных сообщений. Пляжный коп / Болота / Глейдс / The Glades [S03] (2012) WEB-DL 720p от CasStudio | ТВ3

14 | 9

14.01 ГБ

В этой теме нет новых непрочитанных сообщений. Пляжный коп / Болота, Глейдс / The Glades [S02] (2012) WEB-DL 720p от CasStudio | ТВ3

29 | 4

19.09 ГБ

В этой теме нет новых непрочитанных сообщений. Фалькон 4.0 Союзные войска / Falcon 4.0 Allied Force (2005) PC

2 | 2

648.85 МБ

В этой теме нет новых непрочитанных сообщений. Пэт и Кэббедж / Pat and Cabbage [s01] (2013) HDTVRip от CasStudio | РедМедиа

8 | 6

2.24 ГБ




Вы не можете начинать темы
Вы не можете отвечать на сообщения
Вы не можете редактировать свои сообщения
Вы не можете удалять свои сообщения
Вы не можете добавлять вложения

Перейти:  
Для Мосгорсуда, Роскомнадзора и рекламодателей: mosgorsud-torrent[собачка]yandex.ru
 Вход
ppkBB3cker v.2 © 2008-2014 @ PPK
[ Time : 0.027s | 14 Queries | GZIP : Off ]

Торрент трекер RUTOR.IN, Не можете зайти на rutor.org? Какой новый адрес рутор? Какое зеркало рутор? Не работает rutor.org и зеркала? Тогда наш торрент специально для вас. Rutor.in неофициальное зеркало rutor. В случае если у Вас заблокирован rutor или вдруг Вы не можете на него зайти, то Вы без труда сможете скачать бесплатно и без рекламы последние новинки кино, игр, сериалов и прочего у нас, на Rutor.in. Не нужно использовать прокси, чтобы зайти на рутор, достаточно воспользоваться нашим ресурсом. Все новые фильмы, игры, сериалы, книги и музыка за 2013 и 2014 годы через торрент бесплатно. Скачивайте фильмы в хорошем качестве, игры для пк, xbox, playstation без регистрации. У нас вы найдете новые Зарубежные сериалы и Русские сериалы 2013, 2014, 2015 годов. Оставайтесь с нами, качайте любимые фильмы, игры, сериалы, книги и музыку.