img image001 image001 image001 image001 image001 image001 image001 image001 image001 image001 image001 image001 image001 image001 image001

Planets Sun Sun Sun
Статистика раздачи
Автор: Снежана | Размер: 14.04 ГБ | Добавлен: 26 июл 2013
Раздают: 2    Качают: 4
Скачать торрент
Скачать торрент
Описание торрента

СообщениеДобавлено: 26 июл 2013 

#77

Название: Кости
Оригинальное название: Bones
Год выпуска: 2012
Жанр: драма, детектив
Режиссер: Иэн Тойнтон
В ролях: Эмили Дешанель, Дэвид Бореаназ, Микаэла Конлин, Тамара Тэйлор, Томас Джозеф Тайн, Джон Фрэнсис Дэйли и др.

Описание: Доктор Темперанс Бреннан, блестящий, но одинокий антрополог получает то, чего она меньше всего желала — напарника. Бюро посылает ей амбициозного агента ФБР Сили Бута, чтобы помочь в расследовании нераскрытых дел путем изучения и идентификации костей давно пропавших людей.

Но давно умершие жертвы не единственное, с чем придется столкнуться Боунс, Буту и их команде, раскрывая преступления они часто сталкиваются с взяточничеством, коррупцией и местной разрозненностью.



Страна: США
Продолжительность: 24 x ~ 00:45:00
Перевод: Профессиональный (многоголосый, закадровый) - Baibako
Субтитры: Нет

Перевод: Lub_a
Озвучка: Лира Грим, Светлана Доманова, Татьяна Оболевич, Руслан Иванов и Алексей Кузнецов
Монтаж: Vitall Digitall
Обложка: tvblog

Качество: WEB-DLRip-AVC
Формат: MP4
Видео: AVC, ~ 1509 Кбит/с, 720x400
Аудио rus: AAC, 2 ch, 192 Кбит/с
Аудио eng: AAC, 2 ch, 192 Кбит/с

01. Будущее в прошлом / The Future in the Past
02. Партнеры в разводе / The Partners in the Divorce
03. Месиво в гараже / The Gunk in the Garage
04. Тигр в сказке / The Tiger In The Tale
05. Метод на грани безумия / Method to the Madness
06. Патриот в чистилище / The Patriot in Purgatory
07. Гуманоид в коконе / The Bod in the Pod
08. Шутка, но всерьез / The But in the Joke
09. Призрак в машине / Ghost in the Machine
10. Алмаз неограненый / The Diamond in the Rough
11. Археолог в коконе / The Archaeologist in the Cocoon
12. Труп над кроватью / The Corpse on the Canopy
13. Поворот сюжета / The Twist in the Plot
14. Кукла в дебрях / The Doll in the Derby
15. Выстрел в темноте / The Shot in the Dark
16. Друг в беде / The friend in need
17. Фантастический факт / The Fact in the Fiction
18. The Survivor in the Soap
19. The Doom in the Gloom
20. The Blood from the Stones
21. The Maiden in the Mushrooms
22. The Party in the Pants
23. The Pathos in the Pathogens / Пафос в патогенах
24. Секрет в осаде / The Secret in the Siege
General
Complete name : Bones.s08e01.WEB-DLRip.x264.Rus.Eng.BaibaKo.tv.mp4
Format : MPEG-4
Format profile : Base Media
Codec ID : isom
File size : 584 MiB
Duration : 43mn 49s
Overall bit rate mode : Variable
Overall bit rate : 1 864 Kbps
Encoded date : UTC 2012-09-20 20:35:19
Tagged date : UTC 2012-09-20 20:35:19

Video
ID : 1
Format : AVC
Format/Info : Advanced Video Codec
Format profile : Main@L3.1
Format settings, CABAC : Yes
Format settings, ReFrames : 5 frames
Codec ID : avc1
Codec ID/Info : Advanced Video Coding
Duration : 43mn 45s
Bit rate mode : Variable
Bit rate : 1 541 Kbps
Maximum bit rate : 14.0 Mbps
Width : 720 pixels
Height : 400 pixels
Display aspect ratio : 16:9
Frame rate mode : Constant
Frame rate : 23.976 fps
Color space : YUV
Chroma subsampling : 4:2:0
Bit depth : 8 bits
Scan type : Progressive
Bits/(Pixel*Frame) : 0.223
Stream size : 482 MiB (83%)
Encoded date : UTC 2012-09-20 20:35:19
Tagged date : UTC 2012-09-20 20:35:33

Audio #1
ID : 2
Format : AAC
Format/Info : Advanced Audio Codec
Format profile : LC
Codec ID : 40
Duration : 43mn 49s
Bit rate mode : Variable
Bit rate : 192 Kbps
Maximum bit rate : 198 Kbps
Channel(s) : 2 channels
Channel positions : Front: L R
Sampling rate : 48.0 KHz
Compression mode : Lossy
Stream size : 60.2 MiB (10%)
Language : Russian
Encoded date : UTC 2012-09-20 20:35:28
Tagged date : UTC 2012-09-20 20:35:33

Audio #2
ID : 3
Format : AAC
Format/Info : Advanced Audio Codec
Format profile : LC
Codec ID : 40
Duration : 43mn 46s
Bit rate mode : Variable
Bit rate : 128 Kbps
Maximum bit rate : 135 Kbps
Channel(s) : 2 channels
Channel positions : Front: L R
Sampling rate : 48.0 KHz
Compression mode : Lossy
Stream size : 40.1 MiB (7%)
Language : English
Encoded date : UTC 2012-09-20 20:35:31
Tagged date : UTC 2012-09-20 20:35:33





Релиз от:



   Похожие торренты   Торрент   Размер 
В этой теме нет новых непрочитанных сообщений. Кости / Bones [S08] (2012) WEB-DLRip | Baibako

6 | 4

13.86 ГБ

В этой теме нет новых непрочитанных сообщений. Кости / Bones [S08] (2012) WEB-DLRip 720p | Baibako

3 | 4

35.01 ГБ

В этой теме нет новых непрочитанных сообщений. Кости / Bones [S08] (2012) WEB-DLRip 1080p | Baibako

1 | 3

42.08 ГБ

В этой теме нет новых непрочитанных сообщений. Кости / Bones [S09] (2013) WEB-DLRip | BaibaKo

130 | 104

13.45 ГБ

В этой теме нет новых непрочитанных сообщений. Кости / Bones [S07] (2011) WEB-DLRip | BaibaKo

10 | 5

7.41 ГБ

В этой теме нет новых непрочитанных сообщений. Кости / Bones [09x01-22 из 24] (2013) WEB-DLRip | BaibaKo

78 | 163

12.29 ГБ

В этой теме нет новых непрочитанных сообщений. Кости / Bones [11х01-03 из 22] (2015) WEB-DLRip | BaibaKo

128 | 26

1.77 ГБ




Вы не можете начинать темы
Вы не можете отвечать на сообщения
Вы не можете редактировать свои сообщения
Вы не можете удалять свои сообщения
Вы не можете добавлять вложения

Перейти:  
Для Мосгорсуда, Роскомнадзора и рекламодателей: mosgorsud-torrent[собачка]yandex.ru
 Вход
ppkBB3cker v.2 © 2008-2014 @ PPK
[ Time : 0.057s | 14 Queries | GZIP : Off ]

Торрент трекер RUTOR.IN, Не можете зайти на rutor.org? Какой новый адрес рутор? Какое зеркало рутор? Не работает rutor.org и зеркала? Тогда наш торрент специально для вас. Rutor.in неофициальное зеркало rutor. В случае если у Вас заблокирован rutor или вдруг Вы не можете на него зайти, то Вы без труда сможете скачать бесплатно и без рекламы последние новинки кино, игр, сериалов и прочего у нас, на Rutor.in. Не нужно использовать прокси, чтобы зайти на рутор, достаточно воспользоваться нашим ресурсом. Все новые фильмы, игры, сериалы, книги и музыка за 2013 и 2014 годы через торрент бесплатно. Скачивайте фильмы в хорошем качестве, игры для пк, xbox, playstation без регистрации. У нас вы найдете новые Зарубежные сериалы и Русские сериалы 2013, 2014, 2015 годов. Оставайтесь с нами, качайте любимые фильмы, игры, сериалы, книги и музыку.