img image001 image001 image001 image001 image001 image001 image001 image001 image001 image001 image001 image001 image001 image001 image001

Planets Sun Sun Sun
Статистика раздачи
Автор: Снежана | Размер: 2.62 ГБ | Добавлен: 25 июл 2013
Раздают: 289    Качают: 36
Скачать торрент
Скачать торрент
Описание торрента

СообщениеДобавлено: 25 июл 2013 

#77
Информация о фильме
Оригинальное название: Разведчицы
Год выпуска: 2013
Жанр: Военная драма
Режиссер: Феликс Герчиков
В ролях: Светлана Иванова, Светлана Устинова, Владимир Вдовиченков, Ирина Апексимова, Евгений Пронин, Анатолий Руденко, Николай Добрынин, Елизавета Лотова, Лянка Грыу, Александра Мареева, Анна Халиулина, Олег Морозов, Маркус Кунце, Михаил Елисеев, Сергей Мардарь, Юрий Орлов (II), Игорь Копылов, Оксана Базилевич, Алиса Миронова, Кирилл Жандаров, Олеся Бойко, Екатерина Рудакова, Александр Ситников, Александр Петров (X), Наталья Зацепина, Евгений Павлов (IV), Павел Миронов, Олег Малышев, Кирилл Горбунов, Ирина Основина

О фильме:
О драматическом переплетении судеб двух девушек-разведчиц в годы Второй мировой. Арина Прозоровская – идеалистка, убежденная комсомолка, выросшая в интеллигентной семье. Зоя Величко – деревенская девушка, дочь репрессированного кулака, волей судеб оказавшаяся в уголовной среде и набравшаяся там некоторого цинизма. Незадолго до войны обе девушки оказываются в разведшколе, которой руководит опытный разведчик майор Воротынников. Обстоятельства, при которых девушки начинают учебу, весьма трагические. На Арине "висит" обвинение в измене Родине, и служба для нее единственный шанс оправдаться. Зою обвиняют в убийстве матери Арины, которое произошло незадолго до того, как девушки попали в разведшколу. И хотя Зоя не совершала убийства, и даже пыталась помешать ему, доказательств у нее нет. Поэтому для Зои работа на государство – также единственная возможность избежать наказания.



Страна: Россия
Студия: ООО "Росмедиа Продакшн" по заказу "DT Production"
Продолжительность: 12 x ~00:50:00
Перевод: Не требуется

Файл
Формат: MP4
Качество: WEB-DLRip | КПК
Видео: MPEG-4 AVC (x264), 640x360, ~500 kbps, 25.000 fps
Аудио: AAC LC, 48.0 KHz, 2 ch, 128 Kbps
Субтитры: Нет

Семпл


K:киноRazvedchici.2013.AVC.WEB-DLRip.KPK.GeneralfilmRazvedchici.03.seriya.iz.12.2013.AVC.WEB-DLRip.KPK.Generalfilm.mp4
Format : MPEG-4
Format profile : Base Media
Codec ID : isom
File size : 224 MiB
Duration : 49mn 40s
Overall bit rate mode : Variable
Overall bit rate : 630 Kbps
Encoded date : UTC 2013-07-15 18:20:41
Tagged date : UTC 2013-07-15 18:20:41
Video #1
ID : 1
Format : AVC
Format/Info : Advanced Video Codec
Format profile : Baseline@L4.1
Format settings, CABAC : No
Format settings, ReFrames : 6 frames
Codec ID : avc1
Codec ID/Info : Advanced Video Coding
Duration : 49mn 40s
Bit rate : 500 Kbps
Maximum bit rate : 3 363 Kbps
Width : 640 pixels
Height : 360 pixels
Display aspect ratio : 16:9
Frame rate mode : Constant
Frame rate : 25.000 fps
Color space : YUV
Chroma subsampling : 4:2:0
Bit depth : 8 bits
Scan type : Progressive
Bits/(Pixel*Frame) : 0.087
Stream size : 177 MiB (79%)
Writing library : x264 core 116 r2074 2641b9e
Encoding settings : cabac=0 / ref=6 / deblock=1:-1:-1 / analyse=0x1:0x111 / me=umh / subme=7 / psy=1 / psy_rd=1.00:0.00 / mixed_ref=0 / me_range=16 / chroma_me=1 / trellis=1 / 8x8dct=0 / cqm=0 / deadzone=21,11 / fast_pskip=0 / chroma_qp_offset=-2 / threads=3 / sliced_threads=0 / nr=0 / decimate=1 / interlaced=0 / bluray_compat=0 / constrained_intra=0 / bframes=0 / weightp=0 / keyint=250 / keyint_min=25 / scenecut=40 / intra_refresh=0 / rc_lookahead=60 / rc=2pass / mbtree=1 / bitrate=500 / ratetol=1.0 / qcomp=0.60 / qpmin=0 / qpmax=69 / qpstep=4 / cplxblur=20.0 / qblur=0.5 / ip_ratio=1.40 / aq=1:1.00
Encoded date : UTC 2013-07-15 18:20:41
Tagged date : UTC 2013-07-15 18:20:50
Audio #2
ID : 2
Format : AAC
Format/Info : Advanced Audio Codec
Format profile : LC
Codec ID : 40
Duration : 49mn 40s
Bit rate mode : Variable
Bit rate : 128 Kbps
Maximum bit rate : 144 Kbps
Channel(s) : 2 channels
Channel positions : Front: L R
Sampling rate : 48.0 KHz
Compression mode : Lossy
Stream size : 45.5 MiB (20%)
Encoded date : UTC 2013-07-15 18:20:47
Tagged date : UTC 2013-07-15 18:20:50

Релиз от:



   Похожие торренты   Торрент   Размер 
В этой теме нет новых непрочитанных сообщений. Разведчицы [01-12 из 12] (2013) WEB-DLRip

315 | 32

7.62 ГБ

В этой теме нет новых непрочитанных сообщений. Разведчицы [01-12 из 12] (2013) WEB-DL 720p

53 | 17

16.83 ГБ

В этой теме нет новых непрочитанных сообщений. Разведчицы [01-12 из 12] (2013) DVB от Files-x

56 | 34

19.14 ГБ

В этой теме нет новых непрочитанных сообщений. Разведчицы [01-12 из 12] (2013) SATRip от Getty

622 | 121

6.5 ГБ

В этой теме нет новых непрочитанных сообщений. Разведчицы [01-12 из 12] (2013) HDTVRip от Files-x

397 | 112

7.52 ГБ

В этой теме нет новых непрочитанных сообщений. Разведчицы [01-12 из 12] (2013) 2xDVD9 R5 от New-Team | лицензия

2 | 13

15.78 ГБ

В этой теме нет новых непрочитанных сообщений. Разведчицы [01-12 из 12] (2013) DVDRip-AVC от New-Team | лицензия

212 | 48

10.26 ГБ




Вы не можете начинать темы
Вы не можете отвечать на сообщения
Вы не можете редактировать свои сообщения
Вы не можете удалять свои сообщения
Вы не можете добавлять вложения

Перейти:  
Для Мосгорсуда, Роскомнадзора и рекламодателей: mosgorsud-torrent[собачка]yandex.ru
 Вход
ppkBB3cker v.2 © 2008-2014 @ PPK
[ Time : 0.079s | 13 Queries | GZIP : Off ]
CGP output time : 0.026s | 5 Queries | GZIP : Off

Торрент трекер RUTOR.IN, Не можете зайти на rutor.org? Какой новый адрес рутор? Какое зеркало рутор? Не работает rutor.org и зеркала? Тогда наш торрент специально для вас. Rutor.in неофициальное зеркало rutor. В случае если у Вас заблокирован rutor или вдруг Вы не можете на него зайти, то Вы без труда сможете скачать бесплатно и без рекламы последние новинки кино, игр, сериалов и прочего у нас, на Rutor.in. Не нужно использовать прокси, чтобы зайти на рутор, достаточно воспользоваться нашим ресурсом. Все новые фильмы, игры, сериалы, книги и музыка за 2013 и 2014 годы через торрент бесплатно. Скачивайте фильмы в хорошем качестве, игры для пк, xbox, playstation без регистрации. У нас вы найдете новые Зарубежные сериалы и Русские сериалы 2013, 2014, 2015 годов. Оставайтесь с нами, качайте любимые фильмы, игры, сериалы, книги и музыку.