img image001 image001 image001 image001 image001 image001 image001 image001 image001 image001 image001 image001 image001 image001 image001

Planets Sun Sun Sun
Статистика раздачи
Автор: Снежана | Размер: 4.21 ГБ | Добавлен: 25 июл 2013
Раздают: 6    Качают: 2
Скачать торрент
Скачать торрент
Описание торрента

СообщениеДобавлено: 25 июл 2013 

#77

Название: Красные браслеты
Оригинальное название: Pulseras Rojas / Polseres vermelles
Год выпуска: 2011
Жанр: Драма, комедия
Режиссер: Пао Фрейхаус, Ориол Феррер
В ролях: Алекс Моннер, Igor Szpakowsk,i Joana Vilapuig, Марк Балагер, Нил Кардонер, Микель Иглесиас, Андре Бенито, Marta Angelat, Andreu Rifé, Xicu Masó

Описание: "Красные браслеты" - это история о группе друзей в больнице. Это пять мальчиков и одна девочка, госпитализированных на долгое время. Мы видим, как их дружба помогает им бороться со своими повседневными проблемами, будь то ампутация ноги, развод родителей и много других обстоятельств, не обязательно связанных с их болезнями.



Страна: Испания
Продолжительность: 09 x ~ 00:44:00
Перевод: Любительский (многоголосый, закадровый) - DreamRecords
Субтитры: Нет

Озвучка: ИринаЮС, Юлия Реутова, Илья Гусаков, Владислав Данилов
Перевод: группа "Мир испанских сериалов"
Подготовка видео: LeX
Работа со звуком: Александр Юхно
Постер: Mystery



Качество: HDTVRip
Формат: AVI
Видео: XviD, 720x400, 25 fps, 1294 kbps
Аудио: MP3, 48 kHz, 2 ch, 192.00 kbps

Общее
Полное имя : D:ОзвучкаКрасные браслетыКБ1 (fixing).avi
Формат : AVI
Формат/Информация : Audio Video Interleave
Размер файла : 472 Мбайт
Продолжительность : 44 м.
Общий поток : 1496 Кбит/сек
Программа кодирования : VirtualDubModRus 1.5.10.2 (build 2542/release)
Библиотека кодирования : VirtualDub build 35390/release

Видео
Идентификатор : 0
Формат : MPEG-4 Visual
Профиль формата : Advanced Simple@L5
Параметр BVOP формата : 1
Параметр QPel формата : Нет
Параметр GMC формата : Без точки перехода
Параметр матрицы формата : Default (MPEG)
Идентификатор кодека : XVID
Идентификатор кодека/Подсказка : XviD
Продолжительность : 44 м.
Битрейт : 1295 Кбит/сек
Ширина : 720 пикс.
Высота : 400 пикс.
Соотношение сторон : 16:9
Частота кадров : 25,000 кадр/сек
Цветовое пространство : YUV
Подвыборка цветности : 4:2:0
Битовая глубина : 8 бит
Тип развёртки : Прогрессивная
Метод сжатия : С потерями
Бит/(Пиксели*Кадры) : 0.180
Размер потока : 408 Мбайт (87%)
Библиотека кодирования : XviD 64

Аудио
Идентификатор : 1
Формат : MPEG Audio
Версия формата : Version 1
Профиль формата : Layer 3
Идентификатор кодека : 55
Идентификатор кодека/Подсказка : MP3
Продолжительность : 44 м.
Вид битрейта : Постоянный
Битрейт : 192 Кбит/сек
Канал(ы) : 2 канала(ов)
Частота : 48,0 КГц
Метод сжатия : С потерями
Размер потока : 60,5 Мбайт (13%)
Выравнивание : Разделение по промежуткам
Продолжительность промежутка : 40 мс. (1,00 видеокадр)
Время предзагрузки промежутка : 500 ms



Релиз от:



   Похожие торренты   Торрент   Размер 
В этой теме нет новых непрочитанных сообщений. Красные браслеты / Pulseras Rojas / Polseres vermelles [S01] (2011) HDTVRip | DreamRecords

6 | 6

6.01 ГБ

В этой теме нет новых непрочитанных сообщений. Красные браслеты / Club der roten Bänder [01x01-03 из 10] (2015) HDTVRip | ViruseProject

0 | 0

1.8 ГБ

В этой теме нет новых непрочитанных сообщений. Красные браслеты / Club der roten Bänder [01x01-02 из 10] (2015) HDTVRip | ViruseProject

0 | 0

1.2 ГБ

В этой теме нет новых непрочитанных сообщений. Красные браслеты / Club der roten Bänder [01x01-06 из 10] (2015) HDTVRip | ViruseProject

0 | 2

3.6 ГБ

В этой теме нет новых непрочитанных сообщений. Красные браслеты / Club der roten Bänder [01x01-04 из 10] (2015) HDTVRip | ViruseProject

0 | 0

2.4 ГБ

В этой теме нет новых непрочитанных сообщений. Красные браслеты / Club der roten Bänder [S01] (2015) HDTVRip 720р | ViruseProject | Sub

0 | 3

8.76 ГБ

В этой теме нет новых непрочитанных сообщений. Красные браслеты / Club der roten Bänder [01x01-05 из 10] (2015) HDTVRip | ViruseProject

1 | 103

3 ГБ




Вы не можете начинать темы
Вы не можете отвечать на сообщения
Вы не можете редактировать свои сообщения
Вы не можете удалять свои сообщения
Вы не можете добавлять вложения

Перейти:  
Для Мосгорсуда, Роскомнадзора и рекламодателей: mosgorsud-torrent[собачка]yandex.ru
 Вход
ppkBB3cker v.2 © 2008-2014 @ PPK
[ Time : 0.080s | 16 Queries | GZIP : Off ]

cron